Скачать через торрент Проект воспитания девочек-волшебниц Mahou Shoujo Ikusei Keikaku бесплатно Аниме Все серии на русском torrent

Если у вас наблюдаются проблемы со скриншотами, переходом по ссылками, скачиванием торрентов - проблемы в блокировщике рекламы AdBlock. #хорошегоДня!


Статистика раздачи
Размер:  3.2 GB   |    Зарегистрирован:  9 месяцев   |    .torrent скачан:  28 раз   |   
Раздают:  1  
   
Загрузка...
 
Автор Сообщение

Galfimbul

avatar Galfimbul


Проект воспитания девочек-волшебниц / Mahou Shoujo Ikusei Keikaku
Страна: Япония
Год выпуска: 2016 г.
Тип: TV
Жанр: Приключения, фэнтези
Продолжительность: 12 эп. по 25 мин
Русские субтитры: Timecraft
Перевод: Атомч
Редактура: Сэйя
Режиссер: Хироюки Хащимото

Студия:

Описание: Эта история происходит в мире, где можно стать девочкой-волшебницей, не рождаясь в волшебной семье. Встречаться с могущественными пришельцами и получать у них силу ради защиты Земли от всевозможных напастей тоже не обязательно. Все куда прозаичнее: девочкой-волшебницей может стать любая кандидатка, которая победит в особом социальном проекте. Конечно, успеха добиваются единицы из десятков тысяч, но зато шансы у всех примерно равные, а победительница получает не только волшебные силы, но и физическую силу вкупе с необычной внешностью.

Однажды в квартале, где живут возвысившиеся над остальным человечеством волшебницы, делают неприятное объявление. Баланс магической энергии нарушен, и чтобы восстановить приемлемый порядок вещей, люди должны вдвое уменьшить число девочек-волшебниц. А это значит, что они должны соревноваться между собой за право сохранить магию. Поначалу состязание вполне невинное, но со временем условия становятся все опаснее, а ставки – все выше. Похоже, очень скоро девочкам придется отстаивать свое право не только на волшебство, но и на саму жизнь.

<span class="post-font-sans1">Качество: HDTVRip | Равка: Leopard-Raws Формат: mp4 | Тип Видео: без хардсаба
Видео: х264, 8 bits, 1280x720, 1941 kbps, 23.976 fps, (16:9)
JP - AAC, 192 kbps, 48.0 KHz, 2 ch Язык Японский</span>
01. Добро пожаловать в мир грёз и волшебства!
02. Сбор волшебных конфет!
03. Уведомление о новой версии!
04. Добавь больше друзей!
05. Новая героиня!
06. Достань очень редкие предметы
07. Стань ближе с друзьями!
08. Восьмая серия: Неожиданный исход встречи!
09. Уведомление о новых правилах
Общее
Полное имя : D:\[Leopard-Raws]\[Leopard-Raws] Mahou Shoujo Ikusei Keikaku\[Leopard-Raws] Mahou Shoujo Ikusei Keikaku - 01 RAW (ATX 1280x720 x264 AAC).mp4
Формат : MPEG-4
Профиль формата : Base Media
Идентификатор кодека : isom
Размер файла : 367 Мбайт
Продолжительность : 24 м.
Режим общего битрейта : Переменный
Общий поток : 2136 Кбит/сек
Дата кодирования : UTC 2016-10-02 05:25:30
Дата пометки : UTC 2016-10-02 05:25:30

Видео
Идентификатор : 1
Формат : AVC
Формат/Информация : Advanced Video Codec
Профиль формата : High@L4.1
Параметр CABAC формата : Да
Параметр ReFrames формата : 4 кадра
Идентификатор кодека : avc1
Идентификатор кодека/Информация : Advanced Video Coding
Продолжительность : 24 м.
Битрейт : 1941 Кбит/сек
Максимальный битрейт : 10,6 Мбит/сек
Ширина : 1280 пикселей
Высота : 720 пикселей
Соотношение сторон : 16:9
Режим частоты кадров : Постоянный
Частота кадров : 23,976 кадра/сек
Цветовое пространство : YUV
Субдискретизация насыщенности : 4:2:0
Битовая глубина : 8 бит
Тип развёртки : Прогрессивная
Бит/(Пиксели*Кадры) : 0.088
Размер потока : 333 Мбайт (91%)
Заголовок : 264:fps=23.976@GPAC0.5.2-DEV-rev376-g5eeb74d-master
Библиотека кодирования : x264 core 129 r2245+729M 1a52e03
Настройки программы : cabac=1 / ref=4 / deblock=1:1:-1 / analyse=0x3:0x113 / me=umh / subme=9 / psy=1 / fade_compensate=0.00 / psy_rd=1.00:0.00 / mixed_ref=1 / me_range=24 / chroma_me=1 / trellis=2 / 8x8dct=1 / cqm=0 / deadzone=21,11 / fast_pskip=1 / chroma_qp_offset=-2 / threads=8 / lookahead_threads=1 / sliced_threads=0 / nr=0 / decimate=1 / interlaced=0 / bluray_compat=0 / constrained_intra=0 / fgo=0 / bframes=9 / b_pyramid=2 / b_adapt=2 / b_bias=0 / direct=1 / weightb=1 / open_gop=0 / weightp=2 / keyint=240 / keyint_min=24 / scenecut=40 / intra_refresh=0 / rc=crf / mbtree=0 / crf=18.5 / qcomp=0.72 / qpmin=0 / qpmax=69 / qpstep=4 / ip_ratio=1.40 / pb_ratio=1.30 / aq=1:0.85
Дата кодирования : UTC 2016-10-02 05:25:30
Дата пометки : UTC 2016-10-02 05:25:33
Основные цвета : BT.709
Характеристики трансфера : BT.709
Коэффициенты матрицы : BT.709

Аудио
Идентификатор : 2
Формат : AAC
Формат/Информация : Advanced Audio Codec
Профиль формата : LC
Идентификатор кодека : 40
Продолжительность : 24 м.
Вид битрейта : Переменный
Битрейт : 192 Кбит/сек
Максимальный битрейт : 230 Кбит/сек
Каналы : 2 канала
Расположение каналов : Front: L R
Частота : 48,0 КГц
Метод сжатия : С потерями
Размер потока : 32,8 Мбайт (9%)
Язык : Japanese
Дата кодирования : UTC 2016-10-01 18:52:36
Дата пометки : UTC 2016-10-02 05:25:33


Обновите торент файл, добавлена 9я серия

Трекер:  [ 01-Дек-2016 23:00 ]

  

Скачать .torrent

Размер .torrent файла 19 KB


Размер: 3.2 GB
Хэш (hash) релиза: ed946cddc6a5d0a62bfb1e66473183e2706fc7a1
Подписка на обновления:

Торренты, похожие на Проект воспитания девочек-волшебниц Mahou Shoujo Ikusei Keikaku скачать торрент

Форум Название Автор Размер S L Добавлен
Аниме | HD Rips ·· Проект воспитания девочек-волшебниц / Mahou Shoujo Ikusei Keikaku (Хироюки Хащимото) [TV] [12 из 12] [Без хардсаба] [Rus(ext), JAP+SUB] [2016, приключения, фэнтези, BDRip] [1080p] Galfimbul 1567386436214.6 GB 0 0 1495653972

22:26

24-Май-17

Аниме | HD Rips ·· Проект воспитания девочек-волшебниц / Mahou Shoujo Ikusei Keikaku (Хироюки Хащимото) [TV] [1-9 из 12] [без хардсаба] [RUS(ext), JAP+SUB] [2016, приключения, фэнтези, BDRip] [720p] Galfimbul 90107638038.39 GB 0 0 1491646443

13:14

8-Апр-17

Аниме | HD Rips ·· Проект воспитания девочек-волшебниц / Mahou Shoujo Ikusei Keikaku (Хироюки Хащимото) [TV] [1-9 из 12] [без хардсаба] [RUS(ext), JAP+SUB] [2016, приключения, фэнтези, BDRemux] [1080p] Galfimbul 6393502536959.54 GB 0 0 1489687612

21:06

16-Мар-17

Аниме | HD Rips ·· Проект воспитания девочек-волшебниц / Mahou Shoujo Ikusei Keikaku (Хироюки Хащимото) [TV] [01-03 из 12] [без хардсаба] [JAP+SUB] [2016, приключения, фэнтези, BDRemux] [1080p] Galfimbul 2122623678519.77 GB 0 0 1483914667

01:31

9-Янв-17

Аниме | HD Rips ·· Проект воспитания девочек-волшебниц / Mahou Shoujo Ikusei Keikaku (Хироюки Хащимото) [TV] [12 из 12] [Без хардсаба] [JAP+SUB] [2016, приключения, фэнтези, HDTVRip] [720p] Galfimbul 46080354714.29 GB 0 0 1483206566

20:49

31-Дек-16

Аниме | HD Rips ·· Проект воспитания девочек-волшебниц / Mahou Shoujo Ikusei Keikaku (Хироюки Хащимото) [TV] [11 из 12] [Без хардсаба] [JAP+SUB] [2016, приключения, фэнтези, HDTVRip] [720p] Galfimbul 41895617263.9 GB 0 0 1482660078

13:01

25-Дек-16

Аниме | HD Rips ·· Проект воспитания девочек-волшебниц / Mahou Shoujo Ikusei Keikaku (Хироюки Хащимото) [TV] [8 из 12] [Без хардсаба] [JAP+SUB] [2016, приключения, фэнтези, HDTVRip] [720p] Galfimbul 29781656632.77 GB 0 0 1479976327

11:32

24-Ноя-16

Аниме | HD Rips ·· Проект воспитания девочек-волшебниц / Mahou Shoujo Ikusei Keikaku (Хироюки Хащимото) [TV] [7 из 12] [Без хардсаба] [JAP+SUB] [2016, приключения, фэнтези, HDTVRip] [720p] Galfimbul 26214241152.44 GB 0 0 1479159294

00:34

15-Ноя-16

Аниме | HD Rips ·· Проект воспитания девочек-волшебниц / Mahou Shoujo Ikusei Keikaku (Хироюки Хащимото) [TV] [6 из 12] [Без хардсаба] [JAP+SUB] [2016, приключения, фэнтези, HDTVRip] [720p] Galfimbul 22545166232.1 GB 0 0 1479027775

12:02

13-Ноя-16

Аниме | HD Rips ·· Проект воспитания девочек-волшебниц / Mahou Shoujo Ikusei Keikaku (Хироюки Хащимото) [TV] [5 из 12] [Без хардсаба] [JAP+SUB] [2016, приключения, фэнтези, HDTVRip] [720p] Galfimbul 18534422681.73 GB 0 0 1478428921

13:42

6-Ноя-16

Аниме | HD Rips ·· Проект воспитания девочек-волшебниц / Mahou Shoujo Ikusei Keikaku (Хироюки Хащимото) [TV] [4 из 12] [Без хардсаба] [JAP+SUB] [2016, приключения, фэнтези, HDTVRip] [720p] Galfimbul 14975234481.39 GB 0 0 1477593966

21:46

27-Окт-16

Аниме | HD Rips ·· Проект воспитания девочек-волшебниц / Mahou Shoujo Ikusei Keikaku (Хироюки Хащимото) [TV] [3 из 12] [Без хардсаба] [JAP+SUB] [2016, приключения, фэнтези, HDTVRip] [720p] Galfimbul 11281838721.05 GB 0 0 1477253947

23:19

23-Окт-16

Аниме | HD Rips ·· Проект воспитания девочек-волшебниц / Mahou Shoujo Ikusei Keikaku (Хироюки Хащимото) [TV] [2 из 12] [Без хардсаба] [JAP+SUB] [2016 г., приключения, фэнтези, HDTVRip] [720p] Galfimbul 759720152725 MB 0 0 1476214746

22:39

11-Окт-16

Аниме | Rips ·· Проект воспитания девочек-волшебниц / Mahou Shoujo Ikusei Keikaku [TV] [1 из 12] [Без хардсаба] [RUS(int)] [2016 г., Экшен, Фэнтези, Сверхъестественное, Триллер, HDTVRip] [720p] Galfimbul 384288498366 MB 0 0 1476025738

18:08

9-Окт-16

Аниме | HD Rips ·· Проект воспитания девочек-волшебниц / Mahou Shoujo Ikusei Keikaku (Хироюки Хащимото) [TV] [1 из 12] [Без хардсаба] [JAP+SUB] [2016 г., приключения, фэнтези, HDTVRip] [720p] Galfimbul 384531941367 MB 0 0 1475529934

00:25

4-Окт-16

Еще никто не оставлял запись к записи скачать торрент Проект воспитания девочек-волшебниц Mahou Shoujo Ikusei Keikaku . Будь первым!

!Обратная связь