Скачать через торрент музыку Трансформеры 3: Тёмная сторона Луны Transformers: Dark Of The Moon - 2011 бесплатно без регистрации torrent

Если у вас наблюдаются проблемы со скриншотами, переходом по ссылками, скачиванием торрентов - проблемы в блокировщике рекламы AdBlock. #хорошегоДня!


Статистика раздачи
Размер:  290 MB   |    Зарегистрирован:  6 лет 2 месяца   |    .torrent скачан:  156 раз   |   
Раздают:  1  
   
Загрузка...
 
Автор Сообщение

AqvaGen


Трансформеры 3: Тёмная сторона Луны / Transformers: Dark Of The Moon

Жанр: Soundtrack
Год выпуска диска: 2011
Производитель диска: USA
Аудио кодек: FLAC
Тип рипа: tracks+.cue
Битрейт аудио: lossless
Продолжительность: 00:39:41

01. Linkin Park - Iridescent (04:01)
02. Paramore - Monster (03:20)
03. My Chemical Romance - The Only Hope For Me Is You (04:34)
04. Taking Back Sunday - Faith (When I Let You Down) (03:09)
05. Staind - The Bottom (04:22)
06. Art Of Dying - Get Thru This (02:43)
07. Goo Goo Dolls - All That You Are (03:13)
08. Theory Of A Deadman - Head Above Water (03:33)
09. Black Veil Brides - Set The World On Fire (03:41)
10. Skillet - Awake And Alive (03:30)
11. Mastodon - Just Got Paid (03:34)

Источник: what.cd
 
Exact Audio Copy V0.99 prebeta 5 from 4. May 2009

EAC extraction logfile from 14. June 2011, 17:30

Various / Transformers: Dark Of The Moon - The Album

Used drive : TSSTcorpDVD+-RW TS-L632H Adapter: 0 ID: 0

Read mode : SecureUtilize accurate stream : YesDefeat audio cache : YesMake use of C2 pointers : No

Read offset correction : 6Overread into Lead-In and Lead-Out : NoFill up missing offset samples with silence : YesDelete leading and trailing silent blocks : NoNull samples used in CRC calculations : YesUsed interface : Native Win32 interface for Win NT & 2000Gap handling : Appended to previous track

Used output format : User Defined EncoderSelected bitrate : 320 kBit/sQuality : HighAdd ID3 tag : NoCommand line compressor : C:\Program Files\Exact Audio Copy\FLAC\flac.exeAdditional command line options : --best --picture="E:\My Music\FLAC\folder.jpg" -P 4096 -V -T "artist=%a" -T "title=%t" -T "album=%g" -T "tracknumber=%n" %s

TOC of the extracted CD

Track | Start | Length | Start sector | End sector --------------------------------------------------------- 1 | 0:00.00 | 4:00.69 | 0 | 18068 2 | 4:00.69 | 3:20.27 | 18069 | 33095 3 | 7:21.21 | 4:34.13 | 33096 | 53658 4 | 11:55.34 | 3:09.34 | 53659 | 67867 5 | 15:04.68 | 4:21.43 | 67868 | 87485 6 | 19:26.36 | 2:43.36 | 87486 | 99746 7 | 22:09.72 | 3:13.29 | 99747 | 114250 8 | 25:23.26 | 3:32.57 | 114251 | 130207 9 | 28:56.08 | 3:41.12 | 130208 | 146794 10 | 32:37.20 | 3:29.73 | 146795 | 162542 11 | 36:07.18 | 3:34.27 | 162543 | 178619

Track 1

Filename E:\My Music\FLAC\Various Artists\Transformers- Dark Of The Moon - The Album\01 - Iridescent.wav

Pre-gap length 0:00:02.00

Peak level 98.8 % Track quality 100.0 % Test CRC 8EBFB9CB Copy CRC 8EBFB9CB Track not present in AccurateRip database Copy OK

Track 2

Filename E:\My Music\FLAC\Various Artists\Transformers- Dark Of The Moon - The Album\02 - Monster.wav

Pre-gap length 0:00:00.32

Peak level 93.9 % Track quality 100.0 % Test CRC E36500D0 Copy CRC E36500D0 Track not present in AccurateRip database Copy OK

Track 3

Filename E:\My Music\FLAC\Various Artists\Transformers- Dark Of The Moon - The Album\03 - The Only Hope For Me Is You.wav

Pre-gap length 0:00:00.21

Peak level 92.3 % Track quality 100.0 % Test CRC A1B518A9 Copy CRC A1B518A9 Track not present in AccurateRip database Copy OK

Track 4

Filename E:\My Music\FLAC\Various Artists\Transformers- Dark Of The Moon - The Album\04 - Faith (When I Let You Down).wav

Pre-gap length 0:00:00.52

Peak level 95.5 % Track quality 100.0 % Test CRC CB4B40F1 Copy CRC CB4B40F1 Track not present in AccurateRip database Copy OK

Track 5

Filename E:\My Music\FLAC\Various Artists\Transformers- Dark Of The Moon - The Album\05 - The Bottom.wav

Pre-gap length 0:00:00.30

Peak level 92.7 % Track quality 100.0 % Test CRC C7F012E8 Copy CRC C7F012E8 Track not present in AccurateRip database Copy OK

Track 6

Filename E:\My Music\FLAC\Various Artists\Transformers- Dark Of The Moon - The Album\06 - Get Thru This.wav

Pre-gap length 0:00:00.33

Peak level 98.2 % Track quality 100.0 % Test CRC 423CF50C Copy CRC 423CF50C Track not present in AccurateRip database Copy OK

Track 7

Filename E:\My Music\FLAC\Various Artists\Transformers- Dark Of The Moon - The Album\07 - All That You Are.wav

Pre-gap length 0:00:01.85

Peak level 98.8 % Track quality 100.0 % Test CRC 37FAE61F Copy CRC 37FAE61F Track not present in AccurateRip database Copy OK

Track 8

Filename E:\My Music\FLAC\Various Artists\Transformers- Dark Of The Moon - The Album\08 - Head Above Water.wav

Pre-gap length 0:00:00.66

Peak level 97.8 % Track quality 100.0 % Test CRC 2D8CAA2E Copy CRC 2D8CAA2E Track not present in AccurateRip database Copy OK

Track 9

Filename E:\My Music\FLAC\Various Artists\Transformers- Dark Of The Moon - The Album\09 - Set The World On Fire.wav

Pre-gap length 0:00:00.38

Peak level 98.8 % Track quality 99.9 % Test CRC EE7BC223 Copy CRC EE7BC223 Track not present in AccurateRip database Copy OK

Track 10

Filename E:\My Music\FLAC\Various Artists\Transformers- Dark Of The Moon - The Album\10 - Awake And Alive.wav

Pre-gap length 0:00:00.88

Peak level 93.4 % Track quality 100.0 % Test CRC 8BF022F4 Copy CRC 8BF022F4 Track not present in AccurateRip database Copy OK

Track 11

Filename E:\My Music\FLAC\Various Artists\Transformers- Dark Of The Moon - The Album\11 - Just Got Paid.wav

Pre-gap length 0:00:00.38

Peak level 93.7 % Track quality 100.0 % Test CRC 33F3D385 Copy CRC 33F3D385 Track not present in AccurateRip database Copy OK

None of the tracks are present in the AccurateRip database

No errors occurred

End of status report
 
REM GENRE SoundtrackREM DATE 2011REM DISCID 95094D0BREM COMMENT "ExactAudioCopy v0.99pb5"PERFORMER "Various"TITLE "Transformers: Dark Of The Moon"FILE "01 - Iridescent.wav" WAVE TRACK 01 AUDIO TITLE "Iridescent" PERFORMER "Linkin Park" INDEX 01 00:00:00 TRACK 02 AUDIO TITLE "Monster" PERFORMER "Paramore" INDEX 00 04:00:45FILE "02 - Monster.wav" WAVE INDEX 01 00:00:00 TRACK 03 AUDIO TITLE "The Only Hope For Me Is You" PERFORMER "My Chemical Romance" INDEX 00 03:20:11FILE "03 - The Only Hope For Me Is You.wav" WAVE INDEX 01 00:00:00 TRACK 04 AUDIO TITLE "Faith (When I Let You Down)" PERFORMER "Taking Back Sunday" INDEX 00 04:33:49FILE "04 - Faith (When I Let You Down).wav" WAVE INDEX 01 00:00:00 TRACK 05 AUDIO TITLE "The Bottom" PERFORMER "Staind" INDEX 00 03:09:11FILE "05 - The Bottom.wav" WAVE INDEX 01 00:00:00 TRACK 06 AUDIO TITLE "Get Thru This" PERFORMER "Art Of Dying" INDEX 00 04:21:18FILE "06 - Get Thru This.wav" WAVE INDEX 01 00:00:00 TRACK 07 AUDIO TITLE "All That You Are" PERFORMER "Goo Goo Dolls" INDEX 00 02:41:47FILE "07 - All That You Are.wav" WAVE INDEX 01 00:00:00 TRACK 08 AUDIO TITLE "Head Above Water" PERFORMER "Theory Of A Deadman" INDEX 00 03:12:54FILE "08 - Head Above Water.wav" WAVE INDEX 01 00:00:00 TRACK 09 AUDIO TITLE "Set The World On Fire" PERFORMER "Black Veil Brides" INDEX 00 03:32:28FILE "09 - Set The World On Fire.wav" WAVE INDEX 01 00:00:00 TRACK 10 AUDIO TITLE "Awake And Alive" PERFORMER "Skillet" INDEX 00 03:40:21FILE "10 - Awake And Alive.wav" WAVE INDEX 01 00:00:00 TRACK 11 AUDIO TITLE "Just Got Paid" PERFORMER "Mastodon" INDEX 00 03:29:44FILE "11 - Just Got Paid.wav" WAVE INDEX 01 00:00:00



Трекер:  [ 27-Июн-2011 12:33 ]

  

Скачать .torrent

Размер .torrent файла 12 KB


Размер: 290 MB
Хэш (hash) релиза: d55069a51924db010eebd42060f8410ddd641639

Еще никто не оставлял запись к записи скачать торрент Трансформеры 3: Тёмная сторона Луны Transformers: Dark Of The Moon - 2011 . Будь первым!

!Обратная связь