Скачать через торрент Кейдзо Keijo!!!!!!!! бесплатно Аниме Все серии на русском torrent

Если у вас наблюдаются проблемы со скриншотами, переходом по ссылками, скачиванием торрентов - проблемы в блокировщике рекламы AdBlock. #хорошегоДня!


Статистика раздачи
Размер:  3.53 GB   |    Зарегистрирован:  10 месяцев   |    .torrent скачан:  21 раз   |   
Раздают:  1  
   
Загрузка...
 
Автор Сообщение

Galfimbul

avatar Galfimbul


Кейдзо / Keijo!!!!!!!!
Страна: Япония
Год выпуска: 2016 г.
Тип: TV
Жанр: Комедия, этти, сёнен, спорт
Продолжительность: 12 эп. по 25 мин
Русские субтитры: AOS Team
Перевод: FooBoo
Редактура: Хаттори
Русские субтитры: Sovetromantica
Редактор/Тайм-код/Оформление: Xander
Переводчик: Несущий Ересь

Режиссер: Такахаси Хидэя

Студия:

Описание: Действие разворачивается в альтернативной Японии, где существует спорт под названием кейдзо. Два противника стоят на платформе, плавающей в воде, и пытаются столкнуть друг друга, используя только груди и задницы. Гениально! Главная героиня Нодзоми Каминащи — старшеклассница, которая после окончания школы планирует профессионально заняться этим, хм, спортом. Девушка выросла в бедной семье и надеется разбогатеть, играя в кейдзо. С детства она занималась гимнастикой, поэтому с гибкостью и чувством равновесия у неё всё в порядке. После школы Нодзоми поступает в спортивный интернат и погружается в захватывающий мир кейдзо.

<span class="post-font-sans1">Качество: HDTVRip | Равка: Leopard-Raws Формат: mp4 | Тип Видео: без хардсаба
Видео: х264, 8 bits, 1280x720, 3082 kbps, 23.976 fps, (16:9)
JP - AAC, 192 kbps, 48.0 KHz, 2 ch Язык Японский</span>
01. Setouchi Keijo Training School!!!!
02. The Hip Toss Brings Us Together!!!!
03. Vacuum Butt Cannon!!!!
04. The Battle for the Fastest Butt!!!!
05. Full-Auto Cerberus!!!!
06. Alluring Kyoto Trip!!!!
07. Where the Turnips Lead!!!!
Общее
Полное имя : D:\[Leopard-Raws]\[Leopard-Raws] Keijo!!!!!!!!\[Leopard-Raws] Keijo!!!!!!!! - 01 RAW (BS11 1280x720 x264 AAC).mp4
Формат : MPEG-4
Профиль формата : Base Media
Идентификатор кодека : isom
Размер файла : 563 Мбайт
Продолжительность : 23 м.
Режим общего битрейта : Переменный
Общий поток : 3278 Кбит/сек
Дата кодирования : UTC 2016-10-06 20:19:40
Дата пометки : UTC 2016-10-06 20:19:40

Видео
Идентификатор : 1
Формат : AVC
Формат/Информация : Advanced Video Codec
Профиль формата : High@L4.1
Параметр CABAC формата : Да
Параметр ReFrames формата : 4 кадра
Идентификатор кодека : avc1
Идентификатор кодека/Информация : Advanced Video Coding
Продолжительность : 23 м.
Битрейт : 3082 Кбит/сек
Максимальный битрейт : 16,0 Мбит/сек
Ширина : 1280 пикселей
Высота : 720 пикселей
Соотношение сторон : 16:9
Режим частоты кадров : Постоянный
Частота кадров : 23,976 кадра/сек
Цветовое пространство : YUV
Субдискретизация насыщенности : 4:2:0
Битовая глубина : 8 бит
Тип развёртки : Прогрессивная
Бит/(Пиксели*Кадры) : 0.140
Размер потока : 529 Мбайт (94%)
Заголовок : 264:fps=23.976@GPAC0.5.2-DEV-rev376-g5eeb74d-master
Библиотека кодирования : x264 core 129 r2245+729M 1a52e03
Настройки программы : cabac=1 / ref=4 / deblock=1:1:-1 / analyse=0x3:0x113 / me=umh / subme=9 / psy=1 / fade_compensate=0.00 / psy_rd=1.00:0.00 / mixed_ref=1 / me_range=24 / chroma_me=1 / trellis=2 / 8x8dct=1 / cqm=0 / deadzone=21,11 / fast_pskip=1 / chroma_qp_offset=-2 / threads=8 / lookahead_threads=1 / sliced_threads=0 / nr=0 / decimate=1 / interlaced=0 / bluray_compat=0 / constrained_intra=0 / fgo=0 / bframes=9 / b_pyramid=2 / b_adapt=2 / b_bias=0 / direct=1 / weightb=1 / open_gop=0 / weightp=2 / keyint=240 / keyint_min=24 / scenecut=40 / intra_refresh=0 / rc=crf / mbtree=0 / crf=17.5 / qcomp=0.72 / qpmin=0 / qpmax=69 / qpstep=4 / ip_ratio=1.40 / pb_ratio=1.30 / aq=1:0.85
Дата кодирования : UTC 2016-10-06 20:19:40
Дата пометки : UTC 2016-10-06 20:19:46
Основные цвета : BT.709
Характеристики трансфера : BT.709
Коэффициенты матрицы : BT.709

Аудио
Идентификатор : 2
Формат : AAC
Формат/Информация : Advanced Audio Codec
Профиль формата : LC
Идентификатор кодека : 40
Продолжительность : 23 м.
Вид битрейта : Переменный
Битрейт : 192 Кбит/сек
Максимальный битрейт : 242 Кбит/сек
Каналы : 2 канала
Расположение каналов : Front: L R
Частота : 48,0 КГц
Метод сжатия : С потерями
Размер потока : 32,9 Мбайт (6%)
Язык : Japanese
Дата кодирования : UTC 2016-10-06 20:18:45
Дата пометки : UTC 2016-10-06 20:19:46


Обновите торент файл, добавлена 7я серия

Трекер:  [ 24-Ноя-2016 16:30 ]

  

Скачать .torrent

Размер .torrent файла 20 KB


Размер: 3.53 GB
Хэш (hash) релиза: 7290645066e7971eeb51c91a0d091a7be9e39bed
Подписка на обновления:

Торренты, похожие на Кейдзо Keijo!!!!!!!! скачать торрент

Форум Название Автор Размер S L Добавлен
Аниме | HD Rips ·· Кейдзо / Keijo!!!!!!!! (Такахаси Хидэя) [TV] [12 из 12] [Без хардсаба] [JAP+SUB] [2016, комедия, этти, сёнен, спорт HDTVRip] [720p] Galfimbul 67181885356.26 GB 0 0 1482930261

16:04

28-Дек-16

Аниме | HD Rips ·· Кейдзо / Keijo!!!!!!!! (Такахаси Хидэя) [TV] [11 из 12] [Без хардсаба] [JAP+SUB] [2016, комедия, этти, сёнен, спорт HDTVRip] [720p] Galfimbul 61209309155.7 GB 0 0 1482251523

19:32

20-Дек-16

Аниме | HD Rips ·· Кейдзо / Keijo!!!!!!!! (Такахаси Хидэя) [TV] [10 из 12] [Без хардсаба] [JAP+SUB] [2016, комедия, этти, сёнен, спорт HDTVRip] [720p] Galfimbul 56265811545.24 GB 0 0 1481575206

23:40

12-Дек-16

Аниме | HD Rips ·· Кейдзо / Keijo!!!!!!!! (Такахаси Хидэя) [TV] [9 из 12] [Без хардсаба] [JAP+SUB] [2016, комедия, этти, сёнен, спорт HDTVRip] [720p] Galfimbul 49772142284.64 GB 0 0 1481155430

03:03

8-Дек-16

Аниме | HD Rips ·· Кейдзо / Keijo!!!!!!!! (Такахаси Хидэя) [TV] [8 из 12] [Без хардсаба] [JAP+SUB] [2016, комедия, этти, сёнен, спорт HDTVRip] [720p] Galfimbul 43250317794.03 GB 0 0 1480634942

02:29

2-Дек-16

Аниме | HD Rips ·· Кейдзо / Keijo!!!!!!!! (Такахаси Хидэя) [TV] [6 из 12] [Без хардсаба] [JAP+SUB] [2016, комедия, этти, сёнен, спорт HDTVRip] [720p] Galfimbul 32766501243.05 GB 0 0 1479168511

03:08

15-Ноя-16

Аниме | HD Rips ·· Кейдзо / Keijo!!!!!!!! (Такахаси Хидэя) [TV] [5 из 12] [Без хардсаба] [JAP+SUB] [2016, комедия, этти, сёнен, спорт HDTVRip] [720p] Galfimbul 27368854532.55 GB 0 0 1478907912

02:45

12-Ноя-16

Аниме | HD Rips ·· Кейдзо / Keijo!!!!!!!! (Такахаси Хидэя) [TV] [4 из 12] [Без хардсаба] [JAP+SUB] [2016, комедия, этти, сёнен, спорт HDTVRip] [720p] Galfimbul 22117283702.06 GB 0 0 1477959276

03:14

1-Ноя-16

Аниме | HD Rips ·· Кейдзо / Keijo!!!!!!!! (Такахаси Хидэя) [TV] [1 из 12] [Без хардсаба] [JAP+SUB] [2016 г., комедия, этти, сёнен, спорт HDTVRip] [720p] Galfimbul 590030827563 MB 0 0 1476050480

01:01

10-Окт-16

Аниме | HD Rips ·· Кейджо!!!!!!!! / Keijo!!!!!!!! / Кейдзо!!!!!!!! [TV+Special] [01-06+0 из 12+6] [Без хардсаба] [JAP+SUB] [2016, комедия, спорт, сёнэн, этти, BDRip] [1080p] Galfimbul 2014361140118.76 GB 0 0 1493654850

19:07

1-Май-17

Аниме | HD Rips ·· Кейджо!!!!!!!! / Keijo!!!!!!!! / Кейдзо!!!!!!!! [TV] [01-06 из 12] [Без хардсаба] [JAP+SUB] [2016, комедия, спорт, сёнэн, этти, BDRip] [720p] Galfimbul 43284110744.03 GB 0 0 1493654843

19:07

1-Май-17

Еще никто не оставлял запись к записи скачать торрент Кейдзо Keijo!!!!!!!! . Будь первым!

!Обратная связь