Скачать через торрент Очарование Ренесанса Magic-Kyun! Renaissance бесплатно Аниме Все серии на русском torrent

Если у вас наблюдаются проблемы со скриншотами, переходом по ссылками, скачиванием торрентов - проблемы в блокировщике рекламы AdBlock. #хорошегоДня!


Статистика раздачи
Размер:  3.34 GB   |    Зарегистрирован:  1 год   |    .torrent скачан:  24 раза   |   
Раздают:  1  
   
Загрузка...
 
Автор Сообщение

Galfimbul

avatar Galfimbul


Очарование Ренесанса
Magic-Kyun! Renaissance
マジきゅんっ! ルネッサンス

Страна: Япония
Год выпуска: 2016
Жанр: сёдзё, романтика, магия
Тип: TV
Продолжительность: 13 эпизод x 25 минут
Режиссер: Ямадзаки Мицуэ
Студия:

Перевод: субтитры
<div style="margin-left: 2em" class="post-ul">Субтитры: shojosei
<div style="margin-left: 2em" class="post-ul">Перевод: sys3x
Редактура: Kasandra</div>
</div>

Хардсаб: нет

Описание: Юная Кохана хочет пойти по маминым стопам, поэтому поступает в школу Хосиномори. Там она встречает талантливых ребят. Каждый из них способен творить волшебство, а вот у Коханы пока не выходит. Так получится ли у неё стать такой же выдающейся волшебницей, как мама?
1. Ярко цветущий Ренессанс
2. Только для твоих глаз
3. Вдохновляющий альбом
4. Танец при лунном свете
5. Ты притягиваешь к себе!
6. В порыве игривого ветра
7. Ты словно солнышко
8. Недостижимое сияние
9. Фестиваль волшебства и чудес
10.
11.
12.
13.
<div class="post-box">Качество: HDTVRip [Leopard-Raws]
Формат видео: MP4
Видео: 8 bits, H.264, 1280x720, 2678 Kbps, 23.976 fps
Аудио:
<div style="margin-left: 2em" class="post-ul">в составе контейнера
<div style="margin-left: 2em" class="post-ul">JAP - AAC, 48.0 kHz, ~192 kb/s, 2 ch</div>
</div>
Субтитры:
<div style="margin-left: 2em" class="post-ul">внешним файлом
<div style="margin-left: 2em" class="post-ul">ass - язык русский</div>
</div>
</div>
General
Complete name : ***\[Leopard-Raws] Magic-Kyun! Renaissance - 01 RAW (SUN 1280x720 x264 AAC).mp4
Format : MPEG-4
Format profile : Base Media
Codec ID : isom (isom/avc1/iso6)
File size : 490 MiB
Duration : 23 min
Overall bit rate mode : Variable
Overall bit rate : 2 873 kb/s
Encoded date : UTC 2016-10-03 03:32:50
Tagged date : UTC 2016-10-03 03:32:50

Video
ID : 1
Format : AVC
Format/Info : Advanced Video Codec
Format profile : High@L4.1
Format settings, CABAC : Yes
Format settings, ReFrames : 4 frames
Codec ID : avc1
Codec ID/Info : Advanced Video Coding
Duration : 23 min
Bit rate : 2 678 kb/s
Maximum bit rate : 19.2 Mb/s
Width : 1 280 pixels
Height : 720 pixels
Display aspect ratio : 16:9
Frame rate mode : Constant
Frame rate : 23.976 (24000/1001) FPS
Color space : YUV
Chroma subsampling : 4:2:0
Bit depth : 8 bits
Scan type : Progressive
Bits/(Pixel*Frame) : 0.121
Stream size : 456 MiB (93%)
Title : 264:fps=23.976@GPAC0.5.2-DEV-rev376-g5eeb74d-master
Writing library : x264 core 129 r2245+729M 1a52e03
Encoding settings : cabac=1 / ref=4 / deblock=1:1:-1 / analyse=0x3:0x113 / me=umh / subme=9 / psy=1 / fade_compensate=0.00 / psy_rd=1.00:0.00 / mixed_ref=1 / me_range=24 / chroma_me=1 / trellis=2 / 8x8dct=1 / cqm=0 / deadzone=21,11 / fast_pskip=1 / chroma_qp_offset=-2 / threads=8 / lookahead_threads=1 / sliced_threads=0 / nr=0 / decimate=1 / interlaced=0 / bluray_compat=0 / constrained_intra=0 / fgo=0 / bframes=9 / b_pyramid=2 / b_adapt=2 / b_bias=0 / direct=1 / weightb=1 / open_gop=0 / weightp=2 / keyint=240 / keyint_min=24 / scenecut=40 / intra_refresh=0 / rc=crf / mbtree=0 / crf=18.5 / qcomp=0.72 / qpmin=0 / qpmax=69 / qpstep=4 / ip_ratio=1.40 / pb_ratio=1.30 / aq=1:0.85
Encoded date : UTC 2016-10-03 03:32:50
Tagged date : UTC 2016-10-03 03:32:54
Color range : Limited
Color primaries : BT.709
Transfer characteristics : BT.709
Matrix coefficients : BT.709

Audio
ID : 2
Format : AAC
Format/Info : Advanced Audio Codec
Format profile : LC
Codec ID : 40
Duration : 23 min
Bit rate mode : Variable
Bit rate : 192 kb/s
Maximum bit rate : 236 kb/s
Channel(s) : 2 channels
Channel positions : Front: L R
Sampling rate : 48.0 kHz
Frame rate : 46.875 FPS (1024 spf)
Compression mode : Lossy
Stream size : 32.7 MiB (7%)
Language : Japanese
Encoded date : UTC 2016-10-02 16:53:47
Tagged date : UTC 2016-10-03 03:32:54


Трекер:  [ 21-Ноя-2016 13:30 ]

  

Скачать .torrent

Размер .torrent файла 18 KB


Размер: 3.34 GB
Хэш (hash) релиза: f50f20c4c52c045fa12053789e31528e17668c06
Подписка на обновления:

Торренты, похожие на Очарование Ренесанса Magic-Kyun! Renaissance скачать торрент

Форум Название Автор Размер S L Добавлен
Аниме | HD Rips ·· Очарование Ренесанса / Magic-Kyun! Renaissance [TV] [1-12 из 13] [Без хардсаба] [JAP+SUB] [2016, сёдзё, романтика, магия, HDTVRip] [720p] Galfimbul 54133951595.04 GB 0 0 1482144234

13:43

19-Дек-16

Аниме | HD Rips ·· Очарование Ренесанса / Magic-Kyun! Renaissance [TV] [1-11 из 13] [Без хардсаба] [JAP+SUB] [2016, сёдзё, романтика, магия, HDTVRip] [720p] Galfimbul 49953504234.65 GB 0 0 1481551240

17:00

12-Дек-16

Аниме | HD Rips ·· Очарование Ренесанса / Magic-Kyun! Renaissance [TV] [1-10 из 13] [Без хардсаба] [JAP+SUB] [2016, сёдзё, романтика, магия, HDTVRip] [720p] Galfimbul 45261308644.22 GB 0 0 1480921762

10:09

5-Дек-16

Аниме | HD Rips ·· Очарование Ренесанса / Magic-Kyun! Renaissance [TV] [1-9 из 13] [Без хардсаба] [JAP+SUB] [2016, сёдзё, романтика, магия, HDTVRip] [720p] Galfimbul 41197678683.84 GB 0 0 1480465756

03:29

30-Ноя-16

Аниме | HD Rips ·· Очарование Ренесанса / Magic-Kyun! Renaissance [TV] [1-7 из 13] [Без хардсаба] [JAP+SUB] [2016, сёдзё, романтика, магия, HDTVRip] [720p] Galfimbul 31682442002.95 GB 0 0 1479189712

09:01

15-Ноя-16

Аниме | HD Rips ·· Очарование Ренесанса / Magic-Kyun! Renaissance [TV] [1-6 из 13] [Без хардсаба] [JAP+SUB] [2016, сёдзё, романтика, магия, HDTVRip] [720p] Galfimbul 27433542552.55 GB 0 0 1478510982

12:29

7-Ноя-16

Аниме | HD Rips ·· Очарование Ренесанса / Magic-Kyun! Renaissance [TV] [1-5 из 13] [Без хардсаба] [JAP+SUB] [2016, сёдзё, романтика, магия, HDTVRip] [720p] Galfimbul 22995801432.14 GB 0 0 1477924334

17:32

31-Окт-16

Еще никто не оставлял запись к записи скачать торрент Очарование Ренесанса Magic-Kyun! Renaissance . Будь первым!

!Обратная связь