Скачать через торрент музыку Звездный Путь: Глубокий космос 9 Star Trek - Deep Space Nine бесплатно без регистрации torrent

Если у вас наблюдаются проблемы со скриншотами, переходом по ссылками, скачиванием торрентов - проблемы в блокировщике рекламы AdBlock. #хорошегоДня!


Статистика раздачи
Размер:  311 MB   |    Зарегистрирован:  10 месяцев   |    .torrent скачан:  313 раз   |   
Раздают:  1  
   
Загрузка...
 
Автор Сообщение

Galfimbul

avatar Galfimbul


Звездный Путь: Глубокий космос 9 / Star Trek - Deep Space Nine

Название альбома: Star Trek - Deep Space Nine: Music From The Original Television Soundtrack (The Emissary)
Жанр: Soundtrack
Композитор: Dennis McCarthy
Год выпуска диска: 1993
Год выпуска фильма: 1993
Страна-производитель диска: USA
Издатель (лейбл): GNP Crescendo Records
Номер по каталогу: B000001P1D
Аудиокодек: FLAC (*.flac)
Тип рипа: tracks+.cue
Битрейт аудио: lossless
Продолжительность: 90 минут
Источник: релизер
сайт-источник/ник/другое: iwantmyp2
Наличие сканов в содержимом раздачи: да
Треклист:
1 Main Title
2 Wolf 359
3 The Enterprise Departs/ A New Home
4 Trashed And Thrashed
5 Bajor/ Jake/ Saying Goodbye
6 Cucumbers In Space
7 New Personality
8 Into The Wormhole
9 Time Stood Still
10 Searching For Relatives
11 Painful Memories
12 Passage Terminated
13 Back To Saratoga/ What Shields?
14 Reconciliation
15 The Sisko Kid
16 A New Beginning
17 Main Title (Single Version)
18 Passage Terminated (Single Version)
Exact Audio Copy V0.99 prebeta 4 from 23. January 2008

EAC extraction logfile from 8. October 2013, 3:25

Dennis McCarthy / Deep Space Nine

Used drive : HL-DT-STDVD-RAM GSA-H55N Adapter: 0 ID: 1

Read mode : SecureUtilize accurate stream : YesDefeat audio cache : YesMake use of C2 pointers : No

Read offset correction : 572Overread into Lead-In and Lead-Out : NoFill up missing offset samples with silence : YesDelete leading and trailing silent blocks : NoNull samples used in CRC calculations : YesUsed interface : Native Win32 interface for Win NT & 2000Gap handling : Appended to previous track

Used output format : User Defined EncoderSelected bitrate : 768 kBit/sQuality : HighAdd ID3 tag : NoCommand line compressor : C:\Program Files (x86)\Exact Audio Copy\FLAC\FLAC.EXEAdditional command line options : -8 -V -T "ARTIST=%artist%" -T "TITLE=%title%" -T "ALBUM=%albumtitle%" -T "DATE=%year%" -T "TRACKNUMBER=%tracknr%" -T "GENRE=%genre%" -T "PERFORMER=%albuminterpret%" -T "COMPOSER=%composer%" %haslyrics%--tag-from-file=LYRICS="%lyricsfile%"%haslyrics% -T "ALBUMARTIST=%albumartist%" -T "ALBUM ARTIST=%albumartist%" -T "DISCNUMBER=%cdnumber%" -T "TOTALDISCS=%totalcds%" -T "TOTALTRACKS=%numtracks%" -T "COMMENT=%comment%" %source% -o %dest%

TOC of the extracted CD

Track | Start | Length | Start sector | End sector --------------------------------------------------------- 1 | 0:00.00 | 1:55.35 | 0 | 8659 2 | 1:55.35 | 4:51.03 | 8660 | 30487 3 | 6:46.38 | 1:10.32 | 30488 | 35769 4 | 7:56.70 | 1:59.23 | 35770 | 44717 5 | 9:56.18 | 1:44.65 | 44718 | 52582 6 | 11:41.08 | 1:44.00 | 52583 | 60382 7 | 13:25.08 | 2:17.60 | 60383 | 70717 8 | 15:42.68 | 3:41.12 | 70718 | 87304 9 | 19:24.05 | 4:13.33 | 87305 | 106312 10 | 23:37.38 | 1:13.17 | 106313 | 111804 11 | 24:50.55 | 4:21.53 | 111805 | 131432 12 | 29:12.33 | 3:44.22 | 131433 | 148254 13 | 32:56.55 | 2:00.40 | 148255 | 157294 14 | 34:57.20 | 3:18.48 | 157295 | 172192 15 | 38:15.68 | 4:40.52 | 172193 | 193244 16 | 42:56.45 | 1:47.63 | 193245 | 201332 17 | 44:44.33 | 4:16.27 | 201333 | 220559 18 | 49:00.60 | 3:32.00 | 220560 | 236459

Track 1

Filename 01 - Star Trek- Deep Space Nine - Main Title.wav

Pre-gap length 0:00:02.00

Peak level 78.6 % Track quality 100.0 % Test CRC 6E92A884 Copy CRC 6E92A884 Copy OK

Track 2

Filename 02 - Wolf 359.wav

Peak level 88.9 % Track quality 100.0 % Test CRC 6B3F01C3 Copy CRC 6B3F01C3 Copy OK

Track 3

Filename 03 - The Enterprise Departs , A New Home.wav

Peak level 86.6 % Track quality 100.0 % Test CRC 7D9378B5 Copy CRC 7D9378B5 Copy OK

Track 4

Filename 04 - Trashed and Thrashed.wav

Peak level 54.2 % Track quality 100.0 % Test CRC 4EBD143A Copy CRC 4EBD143A Copy OK

Track 5

Filename 05 - Bajor , Jake , Saying Goodbye.wav

Peak level 91.3 % Track quality 100.0 % Test CRC 4D67118B Copy CRC 4D67118B Copy OK

Track 6

Filename 06 - Cucumbers in Space.wav

Pre-gap length 0:00:00.66

Peak level 60.0 % Track quality 100.0 % Test CRC 1EB2F641 Copy CRC 1EB2F641 Copy OK

Track 7

Filename 07 - New Personality.wav

Peak level 82.0 % Track quality 99.9 % Test CRC 24F4243A Copy CRC 24F4243A Copy OK

Track 8

Filename 08 - Into the Wormhole.wav

Peak level 91.7 % Track quality 99.9 % Test CRC BED48D62 Copy CRC BED48D62 Copy OK

Track 9

Filename 09 - Time Stood Still.wav

Peak level 100.0 % Track quality 100.0 % Test CRC 2E799506 Copy CRC 2E799506 Copy OK

Track 10

Filename 10 - Searching for Relatives.wav

Peak level 75.4 % Track quality 100.0 % Test CRC 24C47AAF Copy CRC 24C47AAF Copy OK

Track 11

Filename 11 - Painful Memories.wav

Peak level 95.2 % Track quality 100.0 % Test CRC C0B4735E Copy CRC C0B4735E Copy OK

Track 12

Filename 12 - Passage Terminated.wav

Peak level 67.1 % Track quality 100.0 % Test CRC D2919D77 Copy CRC D2919D77 Copy OK

Track 13

Filename 13 - Back to the Saratoga , What Shields .wav

Peak level 97.8 % Track quality 99.9 % Test CRC 525F40A5 Copy CRC 525F40A5 Copy OK

Track 14

Filename 14 - Reconciliation.wav

Peak level 58.0 % Track quality 100.0 % Test CRC BE543EE3 Copy CRC BE543EE3 Copy OK

Track 15

Filename 15 - The Sisko Kid.wav

Peak level 96.1 % Track quality 100.0 % Test CRC 0E16E3BC Copy CRC 0E16E3BC Copy OK

Track 16

Filename 16 - A New Beginning.wav

Peak level 96.7 % Track quality 100.0 % Test CRC FF8044BA Copy CRC FF8044BA Copy OK

Track 17

Filename 17 - Theme from Star Trek- Deep Space Nine (Single Version).wav

Pre-gap length 0:00:01.80

Peak level 94.1 % Track quality 99.9 % Test CRC 2BCED67D Copy CRC 2BCED67D Copy OK

Track 18

Filename 18 - Passage Terminated (Single Version).wav

Peak level 79.4 % Track quality 100.0 % Test CRC 20C50F01 Copy CRC 20C50F01 Copy OK

No errors occurred

End of status report
REM GENRE SoundtrackREM DATE 1993REM DISCID 270C5012REM COMMENT "ExactAudioCopy v0.99pb4"PERFORMER "Dennis McCarthy"TITLE "Deep Space Nine"FILE "01 - Star Trek- Deep Space Nine - Main Title.flac" WAVE TRACK 01 AUDIO TITLE "Star Trek: Deep Space Nine - Main Title" PERFORMER "Dennis McCarthy" INDEX 01 00:00:00FILE "02 - Wolf 359.flac" WAVE TRACK 02 AUDIO TITLE "Wolf 359" PERFORMER "Dennis McCarthy" INDEX 01 00:00:00FILE "03 - The Enterprise Departs , A New Home.flac" WAVE TRACK 03 AUDIO TITLE "The Enterprise Departs / A New Home" PERFORMER "Dennis McCarthy" INDEX 01 00:00:00FILE "04 - Trashed and Thrashed.flac" WAVE TRACK 04 AUDIO TITLE "Trashed and Thrashed" PERFORMER "Dennis McCarthy" INDEX 01 00:00:00FILE "05 - Bajor , Jake , Saying Goodbye.flac" WAVE TRACK 05 AUDIO TITLE "Bajor / Jake / Saying Goodbye" PERFORMER "Dennis McCarthy" INDEX 01 00:00:00 TRACK 06 AUDIO TITLE "Cucumbers in Space" PERFORMER "Dennis McCarthy" INDEX 01 00:00:00FILE "06 - Cucumbers in Space.flac" WAVE INDEX 01 00:00:00FILE "07 - New Personality.flac" WAVE TRACK 07 AUDIO TITLE "New Personality" PERFORMER "Dennis McCarthy" INDEX 01 00:00:00FILE "08 - Into the Wormhole.flac" WAVE TRACK 08 AUDIO TITLE "Into the Wormhole" PERFORMER "Dennis McCarthy" INDEX 01 00:00:00FILE "09 - Time Stood Still.flac" WAVE TRACK 09 AUDIO TITLE "Time Stood Still" PERFORMER "Dennis McCarthy" INDEX 01 00:00:00FILE "10 - Searching for Relatives.flac" WAVE TRACK 10 AUDIO TITLE "Searching for Relatives" PERFORMER "Dennis McCarthy" INDEX 01 00:00:00FILE "11 - Painful Memories.flac" WAVE TRACK 11 AUDIO TITLE "Painful Memories" PERFORMER "Dennis McCarthy" INDEX 01 00:00:00FILE "12 - Passage Terminated.flac" WAVE TRACK 12 AUDIO TITLE "Passage Terminated" PERFORMER "Dennis McCarthy" INDEX 01 00:00:00FILE "13 - Back to the Saratoga , What Shields .flac" WAVE TRACK 13 AUDIO TITLE "Back to the Saratoga / What Shields?" PERFORMER "Dennis McCarthy" INDEX 01 00:00:00FILE "14 - Reconciliation.flac" WAVE TRACK 14 AUDIO TITLE "Reconciliation" PERFORMER "Dennis McCarthy" INDEX 01 00:00:00FILE "15 - The Sisko Kid.flac" WAVE TRACK 15 AUDIO TITLE "The Sisko Kid" PERFORMER "Dennis McCarthy" INDEX 01 00:00:00FILE "16 - A New Beginning.flac" WAVE TRACK 16 AUDIO TITLE "A New Beginning" PERFORMER "Dennis McCarthy" INDEX 01 00:00:00FILE "17 - Theme from Star Trek- Deep Space Nine (Single Version).flac" WAVE TRACK 17 AUDIO TITLE "Theme from Star Trek: Deep Space Nine (Single Version)" PERFORMER "Dennis McCarthy" INDEX 01 00:00:00FILE "18 - Passage Terminated (Single Version).flac" WAVE TRACK 18 AUDIO TITLE "Passage Terminated (Single Version)" PERFORMER "Dennis McCarthy" INDEX 01 00:00:00
Dennis McCarthy (born 1945) is an American film score composer.

His credits for TV series include the soundtrack underscores for Star Trek: The Next Generation, as well as music for Star Trek: Deep Space Nine, Star Trek: Voyager, Star Trek: Enterprise, The Twilight Zone (the 1985 revival), MacGyver, Sliders, Dawson's Creek, Birdland (1994), Having Our Say: The Delany Sisters' First 100 Years and V: The Final Battle.

McCarthy's film credits include Night of the Demon, Off the Wall, Last Plane Out, the 1997 remake of McHale's Navy, and Star Trek Generations.

McCarthy also produced the album Ol' Yellow Eyes Is Back by fellow Star Trek alum Brent Spiner.

McCarthy has won 18 ASCAP awards. He also received two Emmy Awards, one for his theme on Deep Space Nine and the other for background score on a Star Trek TNG episode, in addition to nine Emmy nominations for his various Star Trek-related work. He also shares one Emmy for music for the 63rd Academy Awards.
Альбом был написан Деннис МакКарти и вышел 1 сентября 1993 года. На саундтрек попало 18 треков общей длительностью около 90 минут. Выпуском диска занимался лейбл GNP Crescendo Records.


Трекер:  [ 19-Ноя-2016 01:00 ]

  

Скачать .torrent

Размер .torrent файла 14 KB


Размер: 311 MB
Хэш (hash) релиза: 076db6d0376bd61ffe7df443c46960a2263adc4f

Еще никто не оставлял запись к записи скачать торрент Звездный Путь: Глубокий космос 9 Star Trek - Deep Space Nine . Будь первым!

!Обратная связь