Скачать через торрент музыку Назад в будущее Back to the Future бесплатно без регистрации torrent

Если у вас наблюдаются проблемы со скриншотами, переходом по ссылками, скачиванием торрентов - проблемы в блокировщике рекламы AdBlock. #хорошегоДня!


Статистика раздачи
Размер:  2.01 GB   |    Зарегистрирован:  10 месяцев   |    .torrent скачан:  14 раз   |   
Раздают:  1  
   
Загрузка...
 
Автор Сообщение

Galfimbul

avatar Galfimbul


Назад в будущее / Back to the Future [Complete] | Part II (2) [Expanded] | III (3) [25th Anniversary Edition]

Жанр: Score
Композитор: Alan Silvestri
Год выпуска диска: 1985
Год выпуска фильма: 2015

Страна-производитель диска: USA
Издатель (лейбл): Intrada
Аудиокодек: FLAC (*.flac)
Тип рипа: tracks+.cue

Битрейт аудио: lossless
Продолжительность: 06:28:35
Источник: скачано с What.CD
Наличие сканов в содержимом раздачи: да
[spoiler="2009 - Назад в будущее / Back to the Future [Complete] (01:28:52)"]
CD1 - Complete Score
01 - Logo
02 - DeLorean Reveal
03 - Einstein Disintegrated
04 - '85 Twin Pines Mall
05 - Peabody Barn; Marty Ditches DeLorean
06 - '55 Town Square
07 - Lorraine's Bedroom
08 - Retrieve DeLorean
09 - 1.21 Jigowatts
10 - The Picture
11 - Picture Fades
12 - Skateboard Chase
13 - Marty's Letter
14 - George to the Rescue, Part 1
15 - Marvin Be-Bop (source cue)
16 - George to the Rescue, Part 2
17 - Tension; The Kiss
18 - Goodnight Marty (source cue)
19 - It's Been Educational; Clocktower
20 - Helicopter
21 - '85 Lone Pine Mall
22 - 4x4
23 - Doc Returns
24 - Back to the Future (End Credits)

CD2 - Alternate Early Sessions
01 - DeLorean Reveal
02 - Einstein Disintegrated
03 - Peabody Barn
04 - Marty Ditches DeLorean
05 - '55 Town Square #1 (Trumpet Open)
06 - '55 Town Square #2 (Trumpet Mute)
07 - Retrieve DeLorean
08 - 1.21 Jigowatts
09 - The Picture
10 - Skateboard Chase
11 - George to the Rescue
12 - Tension; The Kiss
13 - Clocktower
14 - '85 Lone Pine Mall
15 - Doc Returns
16 - Ling Ting Ring (unused source cue)
Exact Audio Copy V0.99 prebeta 5 from 4. May 2009

EAC extraction logfile from 27. November 2009, 11:51

Alan Silvestri / Back to the Future (Disc 1)

Used drive : TSSTcorpCD/DVDW TS-H653L Adapter: 1 ID: 0

Read mode : SecureUtilize accurate stream : YesDefeat audio cache : YesMake use of C2 pointers : No

Read offset correction : 6Overread into Lead-In and Lead-Out : NoFill up missing offset samples with silence : YesDelete leading and trailing silent blocks : NoNull samples used in CRC calculations : YesUsed interface : Native Win32 interface for Win NT & 2000Gap handling : Appended to previous track

Used output format : User Defined EncoderSelected bitrate : 320 kBit/sQuality : HighAdd ID3 tag : NoCommand line compressor : C:\Program Files\Exact Audio Copy\Flac\flac.exeAdditional command line options : -V -8 -T "artist=%a" -T "title=%t" -T "album=%g" -T "date=%y" -T "tracknumber=%n" -T "genre=%m" %s

TOC of the extracted CD

Track | Start | Length | Start sector | End sector --------------------------------------------------------- 1 | 0:00.00 | 0:23.36 | 0 | 1760 2 | 0:23.36 | 0:48.74 | 1761 | 5434 3 | 1:12.35 | 1:25.29 | 5435 | 11838 4 | 2:37.64 | 4:45.21 | 11839 | 33234 5 | 7:23.10 | 3:12.65 | 33235 | 47699 6 | 10:36.00 | 1:20.43 | 47700 | 53742 7 | 11:56.43 | 0:49.30 | 53743 | 57447 8 | 12:45.73 | 1:17.27 | 57448 | 63249 9 | 14:03.25 | 1:39.37 | 63250 | 70711 10 | 15:42.62 | 1:08.59 | 70712 | 75870 11 | 16:51.46 | 0:20.08 | 75871 | 77378 12 | 17:11.54 | 1:41.19 | 77379 | 84972 13 | 18:52.73 | 1:21.16 | 84973 | 91063 14 | 20:14.14 | 0:53.02 | 91064 | 95040 15 | 21:07.16 | 2:27.45 | 95041 | 106110 16 | 23:34.61 | 2:37.07 | 106111 | 117892 17 | 26:11.68 | 1:35.58 | 117893 | 125075 18 | 27:47.51 | 1:33.21 | 125076 | 132071 19 | 29:20.72 | 10:32.65 | 132072 | 179536 20 | 39:53.62 | 0:21.15 | 179537 | 181126 21 | 40:15.02 | 3:49.13 | 181127 | 198314 22 | 44:04.15 | 0:43.10 | 198315 | 201549 23 | 44:47.25 | 1:15.74 | 201550 | 207248 24 | 46:03.24 | 3:18.48 | 207249 | 222146

Track 1

Filename C:\EACRips\01 - Logo.wav

Pre-gap length 0:00:02.00

Peak level 90.2 % Track quality 100.0 % Test CRC B745BF14 Copy CRC B745BF14 Track not present in AccurateRip database Copy OK

Track 2

Filename C:\EACRips\02 - DeLorean Reveal.wav

Pre-gap length 0:00:01.57

Peak level 92.9 % Track quality 100.0 % Test CRC A9696DB4 Copy CRC A9696DB4 Track not present in AccurateRip database Copy OK

Track 3

Filename C:\EACRips\03 - Einstein Disintegrated.wav

Pre-gap length 0:00:01.56

Peak level 96.4 % Track quality 100.0 % Test CRC 278071E7 Copy CRC 278071E7 Track not present in AccurateRip database Copy OK

Track 4

Filename C:\EACRips\04 - '85 Twin Pines Mall.wav

Pre-gap length 0:00:01.54

Peak level 99.3 % Track quality 100.0 % Test CRC 8B91B240 Copy CRC 8B91B240 Track not present in AccurateRip database Copy OK

Track 5

Filename C:\EACRips\05 - Peabody Barn; Marty Ditches DeLorean.wav

Pre-gap length 0:00:01.57

Peak level 97.2 % Track quality 100.0 % Test CRC 318EFEA1 Copy CRC 318EFEA1 Track not present in AccurateRip database Copy OK

Track 6

Filename C:\EACRips\06 - '55 Town Square.wav

Pre-gap length 0:00:01.56

Peak level 80.6 % Track quality 100.0 % Test CRC 8B9C9F42 Copy CRC 8B9C9F42 Track not present in AccurateRip database Copy OK

Track 7

Filename C:\EACRips\07 - Lorraine's Bedroom.wav

Pre-gap length 0:00:01.56

Peak level 49.2 % Track quality 100.0 % Test CRC 82501A5B Copy CRC 82501A5B Track not present in AccurateRip database Copy OK

Track 8

Filename C:\EACRips\08 - Retrieve DeLorean.wav

Pre-gap length 0:00:01.56

Peak level 90.8 % Track quality 99.8 % Test CRC 5DB3B86D Copy CRC 5DB3B86D Track not present in AccurateRip database Copy OK

Track 9

Filename C:\EACRips\09 - 1.21 Jigowatts.wav

Pre-gap length 0:00:01.57

Peak level 84.6 % Track quality 100.0 % Test CRC 986A00E5 Copy CRC 986A00E5 Track not present in AccurateRip database Copy OK

Track 10

Filename C:\EACRips\10 - The Picture.wav

Pre-gap length 0:00:01.56

Peak level 94.3 % Track quality 100.0 % Test CRC AE50FF5F Copy CRC AE50FF5F Track not present in AccurateRip database Copy OK

Track 11

Filename C:\EACRips\11 - Picture Fades.wav

Peak level 22.8 % Track quality 100.0 % Test CRC A8BC3F3E Copy CRC A8BC3F3E Track not present in AccurateRip database Copy OK

Track 12

Filename C:\EACRips\12 - Skateboard Chase.wav

Pre-gap length 0:00:01.56

Peak level 99.0 % Track quality 99.8 % Test CRC 4622E4E6 Copy CRC 4622E4E6 Track not present in AccurateRip database Copy OK

Track 13

Filename C:\EACRips\13 - Marty's Letter.wav

Pre-gap length 0:00:01.56

Peak level 58.5 % Track quality 100.0 % Test CRC CAFEECE2 Copy CRC CAFEECE2 Track not present in AccurateRip database Copy OK

Track 14

Filename C:\EACRips\14 - George to the Rescue, Part 1.wav

Pre-gap length 0:00:01.56

Peak level 94.9 % Track quality 100.0 % Test CRC 0EE9261D Copy CRC 0EE9261D Track not present in AccurateRip database Copy OK

Track 15

Filename C:\EACRips\15 - Marvin Be-Bop (source cue).wav

Pre-gap length 0:00:01.56

Peak level 63.3 % Track quality 100.0 % Test CRC AAD6EE25 Copy CRC AAD6EE25 Track not present in AccurateRip database Copy OK

Track 16

Filename C:\EACRips\16 - George to the Rescue, Part 2.wav

Pre-gap length 0:00:01.57

Peak level 92.9 % Track quality 100.0 % Test CRC EFC5AACD Copy CRC EFC5AACD Track not present in AccurateRip database Copy OK

Track 17

Filename C:\EACRips\17 - Tension; The Kiss.wav

Pre-gap length 0:00:01.16

Peak level 94.0 % Track quality 100.0 % Test CRC AE5FCCA1 Copy CRC AE5FCCA1 Track not present in AccurateRip database Copy OK

Track 18

Filename C:\EACRips\18 - Goodnight Marty (source cue).wav

Pre-gap length 0:00:01.56

Peak level 69.8 % Track quality 99.8 % Test CRC 4FA8FEC4 Copy CRC 4FA8FEC4 Track not present in AccurateRip database Copy OK

Track 19

Filename C:\EACRips\19 - It's Been Educational; Clocktower.wav

Pre-gap length 0:00:01.12

Peak level 94.6 % Track quality 100.0 % Test CRC B9A7CA64 Copy CRC B9A7CA64 Track not present in AccurateRip database Copy OK

Track 20

Filename C:\EACRips\20 - Helicopter.wav

Pre-gap length 0:00:01.57

Peak level 29.7 % Track quality 100.0 % Test CRC 09A3BFBC Copy CRC 09A3BFBC Track not present in AccurateRip database Copy OK

Track 21

Filename C:\EACRips\21 - '85 Lone Pine Mall.wav

Pre-gap length 0:00:01.09

Peak level 89.4 % Track quality 100.0 % Test CRC E5613947 Copy CRC E5613947 Track not present in AccurateRip database Copy OK

Track 22

Filename C:\EACRips\22 - 4x4.wav

Pre-gap length 0:00:01.56

Peak level 42.6 % Track quality 99.7 % Test CRC D6420C40 Copy CRC D6420C40 Track not present in AccurateRip database Copy OK

Track 23

Filename C:\EACRips\23 - Doc Returns.wav

Pre-gap length 0:00:01.57

Peak level 95.0 % Track quality 100.0 % Test CRC 7B7485F3 Copy CRC 7B7485F3 Track not present in AccurateRip database Copy OK

Track 24

Filename C:\EACRips\24 - Back to the Future (End Credits).wav

Pre-gap length 0:00:01.57

Peak level 99.7 % Track quality 100.0 % Test CRC 470878D6 Copy CRC 470878D6 Track not present in AccurateRip database Copy OK

None of the tracks are present in the AccurateRip database

No errors occurred

End of status report
REM GENRE SoundtrackREM DATE 1985REM DISCID 5B0B9118REM COMMENT "ExactAudioCopy v0.99pb5"PERFORMER "Alan Silvestri"TITLE "Back to the Future (Disc 1)"FILE "01 - Logo.wav" WAVE TRACK 01 AUDIO TITLE "Logo" PERFORMER "Alan Silvestri" INDEX 01 00:00:00 TRACK 02 AUDIO TITLE "DeLorean Reveal" PERFORMER "Alan Silvestri" INDEX 00 00:21:68FILE "02 - DeLorean Reveal.wav" WAVE INDEX 01 00:00:00 TRACK 03 AUDIO TITLE "Einstein Disintegrated" PERFORMER "Alan Silvestri" INDEX 00 00:47:32FILE "03 - Einstein Disintegrated.wav" WAVE INDEX 01 00:00:00 TRACK 04 AUDIO TITLE "'85 Twin Pines Mall" PERFORMER "Alan Silvestri" INDEX 00 01:23:63FILE "04 - '85 Twin Pines Mall.wav" WAVE INDEX 01 00:00:00 TRACK 05 AUDIO TITLE "Peabody Barn; Marty Ditches DeLorean" PERFORMER "Alan Silvestri" INDEX 00 04:43:53FILE "05 - Peabody Barn; Marty Ditches DeLorean.wav" WAVE INDEX 01 00:00:00 TRACK 06 AUDIO TITLE "'55 Town Square" PERFORMER "Alan Silvestri" INDEX 00 03:11:23FILE "06 - '55 Town Square.wav" WAVE INDEX 01 00:00:00 TRACK 07 AUDIO TITLE "Lorraine's Bedroom" PERFORMER "Alan Silvestri" INDEX 00 01:19:01FILE "07 - Lorraine's Bedroom.wav" WAVE INDEX 01 00:00:00 TRACK 08 AUDIO TITLE "Retrieve DeLorean" PERFORMER "Alan Silvestri" INDEX 00 00:47:63FILE "08 - Retrieve DeLorean.wav" WAVE INDEX 01 00:00:00 TRACK 09 AUDIO TITLE "1.21 Jigowatts" PERFORMER "Alan Silvestri" INDEX 00 01:15:59FILE "09 - 1.21 Jigowatts.wav" WAVE INDEX 01 00:00:00 TRACK 10 AUDIO TITLE "The Picture" PERFORMER "Alan Silvestri" INDEX 00 01:37:70FILE "10 - The Picture.wav" WAVE INDEX 01 00:00:00FILE "11 - Picture Fades.wav" WAVE TRACK 11 AUDIO TITLE "Picture Fades" PERFORMER "Alan Silvestri" INDEX 01 00:00:00 TRACK 12 AUDIO TITLE "Skateboard Chase" PERFORMER "Alan Silvestri" INDEX 00 00:18:41FILE "12 - Skateboard Chase.wav" WAVE INDEX 01 00:00:00 TRACK 13 AUDIO TITLE "Marty's Letter" PERFORMER "Alan Silvestri" INDEX 00 01:39:52FILE "13 - Marty's Letter.wav" WAVE INDEX 01 00:00:00 TRACK 14 AUDIO TITLE "George to the Rescue, Part 1" PERFORMER "Alan Silvestri" INDEX 00 01:19:49FILE "14 - George to the Rescue, Part 1.wav" WAVE INDEX 01 00:00:00 TRACK 15 AUDIO TITLE "Marvin Be-Bop" PERFORMER "Alan Silvestri" INDEX 00 00:51:35FILE "15 - Marvin Be-Bop.wav" WAVE INDEX 01 00:00:00 TRACK 16 AUDIO TITLE "George to the Rescue, Part 2" PERFORMER "Alan Silvestri" INDEX 00 02:26:02FILE "16 - George to the Rescue, Part 2.wav" WAVE INDEX 01 00:00:00 TRACK 17 AUDIO TITLE "Tension; The Kiss" PERFORMER "Alan Silvestri" INDEX 00 02:35:70FILE "17 - Tension; The Kiss.wav" WAVE INDEX 01 00:00:00 TRACK 18 AUDIO TITLE "Goodnight Marty" PERFORMER "Alan Silvestri" INDEX 00 01:34:16FILE "18 - Goodnight Marty.wav" WAVE INDEX 01 00:00:00 TRACK 19 AUDIO TITLE "It's Been Educational; Clocktower" PERFORMER "Alan Silvestri" INDEX 00 01:32:12FILE "19 - It's Been Educational; Clocktower.wav" WAVE INDEX 01 00:00:00 TRACK 20 AUDIO TITLE "Helicopter" PERFORMER "Alan Silvestri" INDEX 00 10:31:22FILE "20 - Helicopter.wav" WAVE INDEX 01 00:00:00 TRACK 21 AUDIO TITLE "'85 Lone Pine Mall" PERFORMER "Alan Silvestri" INDEX 00 00:20:08FILE "21 - '85 Lone Pine Mall.wav" WAVE INDEX 01 00:00:00 TRACK 22 AUDIO TITLE "4x4" PERFORMER "Alan Silvestri" INDEX 00 03:47:46FILE "22 - 4x4.wav" WAVE INDEX 01 00:00:00 TRACK 23 AUDIO TITLE "Doc Returns" PERFORMER "Alan Silvestri" INDEX 00 00:41:42FILE "23 - Doc Returns.wav" WAVE INDEX 01 00:00:00 TRACK 24 AUDIO TITLE "Back to the Future (End Credits)" PERFORMER "Alan Silvestri" INDEX 00 01:14:31FILE "24 - Back to the Future (End Credits).wav" WAVE INDEX 01 00:00:00
Exact Audio Copy V0.99 prebeta 5 from 4. May 2009

EAC extraction logfile from 27. November 2009, 12:13

Alan Silvestri / Back to the Future (Disc 2)

Used drive : TSSTcorpCD/DVDW TS-H653L Adapter: 1 ID: 0

Read mode : SecureUtilize accurate stream : YesDefeat audio cache : YesMake use of C2 pointers : No

Read offset correction : 6Overread into Lead-In and Lead-Out : NoFill up missing offset samples with silence : YesDelete leading and trailing silent blocks : NoNull samples used in CRC calculations : YesUsed interface : Native Win32 interface for Win NT & 2000Gap handling : Appended to previous track

Used output format : User Defined EncoderSelected bitrate : 320 kBit/sQuality : HighAdd ID3 tag : NoCommand line compressor : C:\Program Files\Exact Audio Copy\Flac\flac.exeAdditional command line options : -V -8 -T "artist=%a" -T "title=%t" -T "album=%g" -T "date=%y" -T "tracknumber=%n" -T "genre=%m" %s

TOC of the extracted CD

Track | Start | Length | Start sector | End sector --------------------------------------------------------- 1 | 0:00.00 | 0:43.45 | 0 | 3269 2 | 0:43.45 | 1:26.15 | 3270 | 9734 3 | 2:09.60 | 2:08.45 | 9735 | 19379 4 | 4:18.30 | 1:58.29 | 19380 | 28258 5 | 6:16.59 | 1:37.32 | 28259 | 35565 6 | 7:54.16 | 1:38.19 | 35566 | 42934 7 | 9:32.35 | 1:17.29 | 42935 | 48738 8 | 10:49.64 | 1:38.18 | 48739 | 56106 9 | 12:28.07 | 1:09.26 | 56107 | 61307 10 | 13:37.33 | 1:42.15 | 61308 | 68972 11 | 15:19.48 | 4:16.02 | 68973 | 88174 12 | 19:35.50 | 1:43.04 | 88175 | 95903 13 | 21:18.54 | 10:57.50 | 95904 | 145228 14 | 32:16.29 | 3:49.33 | 145229 | 162436 15 | 36:05.62 | 1:22.49 | 162437 | 168635 16 | 37:28.36 | 2:01.42 | 168636 | 177752

Track 1

Filename C:\EACRips\01 - DeLorean Reveal.wav

Pre-gap length 0:00:02.00

Peak level 96.3 % Track quality 100.0 % Test CRC B25BD555 Copy CRC B25BD555 Track not present in AccurateRip database Copy OK

Track 2

Filename C:\EACRips\02 - Einstein Disintegrated.wav

Pre-gap length 0:00:01.56

Peak level 80.1 % Track quality 100.0 % Test CRC 6154AD8A Copy CRC 6154AD8A Track not present in AccurateRip database Copy OK

Track 3

Filename C:\EACRips\03 - Peabody Barn.wav

Pre-gap length 0:00:01.57

Peak level 88.4 % Track quality 100.0 % Test CRC 0D2FE9B4 Copy CRC 0D2FE9B4 Track not present in AccurateRip database Copy OK

Track 4

Filename C:\EACRips\04 - Marty Ditches DeLorean.wav

Pre-gap length 0:00:01.56

Peak level 72.5 % Track quality 100.0 % Test CRC E041948B Copy CRC E041948B Track not present in AccurateRip database Copy OK

Track 5

Filename C:\EACRips\05 - '55 Town Square #1 (Trumpet Open).wav

Pre-gap length 0:00:01.56

Peak level 77.3 % Track quality 100.0 % Test CRC C256B41A Copy CRC C256B41A Track not present in AccurateRip database Copy OK

Track 6

Filename C:\EACRips\06 - '55 Town Square #2 (Trumpet Mute).wav

Pre-gap length 0:00:01.57

Peak level 82.3 % Track quality 99.8 % Test CRC 4D6D4E37 Copy CRC 4D6D4E37 Track not present in AccurateRip database Copy OK

Track 7

Filename C:\EACRips\07 - Retrieve DeLorean.wav

Pre-gap length 0:00:01.56

Peak level 64.3 % Track quality 100.0 % Test CRC 39E7E646 Copy CRC 39E7E646 Track not present in AccurateRip database Copy OK

Track 8

Filename C:\EACRips\08 - 1.21 Jigowatts.wav

Pre-gap length 0:00:01.56

Peak level 70.5 % Track quality 100.0 % Test CRC A28C2708 Copy CRC A28C2708 Track not present in AccurateRip database Copy OK

Track 9

Filename C:\EACRips\09 - The Picture.wav

Pre-gap length 0:00:01.56

Peak level 64.1 % Track quality 100.0 % Test CRC 0A13E964 Copy CRC 0A13E964 Track not present in AccurateRip database Copy OK

Track 10

Filename C:\EACRips\10 - Skateboard Chase.wav

Pre-gap length 0:00:01.56

Peak level 97.1 % Track quality 100.0 % Test CRC 878EB39C Copy CRC 878EB39C Track not present in AccurateRip database Copy OK

Track 11

Filename C:\EACRips\11 - George to the Rescue.wav

Pre-gap length 0:00:01.57

Peak level 90.9 % Track quality 99.9 % Test CRC 532F489B Copy CRC 532F489B Track not present in AccurateRip database Copy OK

Track 12

Filename C:\EACRips\12 - Tension; The Kiss.wav

Pre-gap length 0:00:01.56

Peak level 88.3 % Track quality 100.0 % Test CRC 82D2F51C Copy CRC 82D2F51C Track not present in AccurateRip database Copy OK

Track 13

Filename C:\EACRips\13 - Clocktower.wav

Pre-gap length 0:00:01.56

Peak level 93.5 % Track quality 100.0 % Test CRC A3C6F58D Copy CRC A3C6F58D Track not present in AccurateRip database Copy OK

Track 14

Filename C:\EACRips\14 - '85 Lone Pine Mall.wav

Pre-gap length 0:00:01.57

Peak level 88.2 % Track quality 99.9 % Test CRC 79ACB5A8 Copy CRC 79ACB5A8 Track not present in AccurateRip database Copy OK

Track 15

Filename C:\EACRips\15 - Doc Returns.wav

Pre-gap length 0:00:01.58

Peak level 91.2 % Track quality 100.0 % Test CRC F9650FA6 Copy CRC F9650FA6 Track not present in AccurateRip database Copy OK

Track 16

Filename C:\EACRips\16 - BONUS-Ling Ting Ring (unused source cue).wav

Pre-gap length 0:00:02.57

Peak level 59.2 % Track quality 99.9 % Test CRC B5DE9B25 Copy CRC B5DE9B25 Track not present in AccurateRip database Copy OK

None of the tracks are present in the AccurateRip database

No errors occurred

End of status report
REM GENRE SoundtrackREM DATE 1985REM DISCID CA094210REM COMMENT "ExactAudioCopy v0.99pb5"PERFORMER "Alan Silvestri"TITLE "Back to the Future (Disc 2)"FILE "01 - DeLorean Reveal.wav" WAVE TRACK 01 AUDIO TITLE "DeLorean Reveal" PERFORMER "Alan Silvestri" INDEX 01 00:00:00 TRACK 02 AUDIO TITLE "Einstein Disintegrated" PERFORMER "Alan Silvestri" INDEX 00 00:42:03FILE "02 - Einstein Disintegrated.wav" WAVE INDEX 01 00:00:00 TRACK 03 AUDIO TITLE "Peabody Barn" PERFORMER "Alan Silvestri" INDEX 00 01:24:47FILE "03 - Peabody Barn.wav" WAVE INDEX 01 00:00:00 TRACK 04 AUDIO TITLE "Marty Ditches DeLorean" PERFORMER "Alan Silvestri" INDEX 00 02:07:03FILE "04 - Marty Ditches DeLorean.wav" WAVE INDEX 01 00:00:00 TRACK 05 AUDIO TITLE "'55 Town Square #1 (Trumpet Open)" PERFORMER "Alan Silvestri" INDEX 00 01:56:62FILE "05 - '55 Town Square #1 (Trumpet Open).wav" WAVE INDEX 01 00:00:00 TRACK 06 AUDIO TITLE "'55 Town Square #2 (Trumpet Mute)" PERFORMER "Alan Silvestri" INDEX 00 01:35:64FILE "06 - '55 Town Square #2 (Trumpet Mute).wav" WAVE INDEX 01 00:00:00 TRACK 07 AUDIO TITLE "Retrieve DeLorean" PERFORMER "Alan Silvestri" INDEX 00 01:36:52FILE "07 - Retrieve DeLorean.wav" WAVE INDEX 01 00:00:00 TRACK 08 AUDIO TITLE "1.21 Jigowatts" PERFORMER "Alan Silvestri" INDEX 00 01:15:62FILE "08 - 1.21 Jigowatts.wav" WAVE INDEX 01 00:00:00 TRACK 09 AUDIO TITLE "The Picture" PERFORMER "Alan Silvestri" INDEX 00 01:36:51FILE "09 - The Picture.wav" WAVE INDEX 01 00:00:00 TRACK 10 AUDIO TITLE "Skateboard Chase" PERFORMER "Alan Silvestri" INDEX 00 01:07:59FILE "10 - Skateboard Chase.wav" WAVE INDEX 01 00:00:00 TRACK 11 AUDIO TITLE "George to the Rescue" PERFORMER "Alan Silvestri" INDEX 00 01:40:47FILE "11 - George to the Rescue.wav" WAVE INDEX 01 00:00:00 TRACK 12 AUDIO TITLE "Tension; The Kiss" PERFORMER "Alan Silvestri" INDEX 00 04:14:35FILE "12 - Tension; The Kiss.wav" WAVE INDEX 01 00:00:00 TRACK 13 AUDIO TITLE "Clocktower" PERFORMER "Alan Silvestri" INDEX 00 01:41:37FILE "13 - Clocktower.wav" WAVE INDEX 01 00:00:00 TRACK 14 AUDIO TITLE "'85 Lone Pine Mall" PERFORMER "Alan Silvestri" INDEX 00 10:56:07FILE "14 - '85 Lone Pine Mall.wav" WAVE INDEX 01 00:00:00 TRACK 15 AUDIO TITLE "Doc Returns" PERFORMER "Alan Silvestri" INDEX 00 03:47:64FILE "15 - Doc Returns.wav" WAVE INDEX 01 00:00:00 TRACK 16 AUDIO TITLE "Ling Ting Ring (unused source cue)" PERFORMER "Alan Silvestri" INDEX 00 01:20:06FILE "16 - Ling Ting Ring (unused source cue).wav" WAVE INDEX 01 00:00:00
[/spoiler]
01 - Main Title
02 - The Future
03 - Hoverboard Chase
04 - A Flying DeLorean?
05 - My Father!
06 - "Alternate 1985"
07 - If They Ever Did
08 - Pair O' Docs
09 - The Book
10 - Tunnel Chase
11 - Burn the Book
12 - Western Union
13 - End Title
Exact Audio Copy V0.99 prebeta 4 from 23. January 2008

EAC extraction logfile from 27. May 2008, 22:13

Alan Silvestri / Back to the Future II

Used drive : HL-DT-STDVD-RW GSA-H11N Adapter: 0 ID: 0

Read mode : SecureUtilize accurate stream : YesDefeat audio cache : YesMake use of C2 pointers : No

Read offset correction : 667Overread into Lead-In and Lead-Out : NoFill up missing offset samples with silence : YesDelete leading and trailing silent blocks : NoNull samples used in CRC calculations : YesUsed interface : Native Win32 interface for Win NT & 2000Gap handling : Appended to previous track

Used output format : User Defined EncoderSelected bitrate : 128 kBit/sQuality : HighAdd ID3 tag : NoCommand line compressor : C:\Program Files\FLAC\flac.exeAdditional command line options : -V -8 -T \"artist=%a\" -T \"title=%t\" -T \"album=%g\" -T \"date=%y\" -T \"tracknumber=%n\" -T \"genre=%m\" %s

TOC of the extracted CD

Track | Start | Length | Start sector | End sector --------------------------------------------------------- 1 | 0:00.00 | 2:21.35 | 0 | 10609 2 | 2:21.35 | 5:22.65 | 10610 | 34824 3 | 7:44.25 | 2:49.12 | 34825 | 47511 4 | 10:33.37 | 4:30.43 | 47512 | 67804 5 | 15:04.05 | 2:04.60 | 67805 | 77164 6 | 17:08.65 | 3:04.50 | 77165 | 91014 7 | 20:13.40 | 3:57.72 | 91015 | 108861 8 | 24:11.37 | 1:27.28 | 108862 | 115414 9 | 25:38.65 | 4:49.65 | 115415 | 137154 10 | 30:28.55 | 5:21.25 | 137155 | 161254 11 | 35:50.05 | 2:25.02 | 161255 | 172131 12 | 38:15.07 | 1:52.63 | 172132 | 180594 13 | 40:07.70 | 4:37.65 | 180595 | 201434

Track 1

Filename J:\Torrented Stuff\Back to the Future II (flac)\01 - Main Title.wav

Pre-gap length 0:00:02.00

Peak level 100.0 % Track quality 99.9 % Test CRC 4E007A50 Copy CRC 4E007A50 Accurately ripped (confidence 4) [B3DDAB3F] Copy OK

Track 2

Filename J:\Torrented Stuff\Back to the Future II (flac)\02 - The Future.wav

Pre-gap length 0:00:02.30

Peak level 86.9 % Track quality 100.0 % Test CRC 5F9F0A9A Copy CRC 5F9F0A9A Accurately ripped (confidence 4) [F42621F2] Copy OK

Track 3

Filename J:\Torrented Stuff\Back to the Future II (flac)\03 - Hoverboard Chase.wav

Pre-gap length 0:00:01.00

Peak level 100.0 % Track quality 100.0 % Test CRC 94D9F772 Copy CRC 94D9F772 Accurately ripped (confidence 4) [E9D5E2FD] Copy OK

Track 4

Filename J:\Torrented Stuff\Back to the Future II (flac)\04 - A Flying DeLorean .wav

Peak level 95.4 % Track quality 100.0 % Test CRC 4FDFA9F0 Copy CRC 4FDFA9F0 Accurately ripped (confidence 4) [74C15C2A] Copy OK

Track 5

Filename J:\Torrented Stuff\Back to the Future II (flac)\05 - My Father!.wav

Pre-gap length 0:00:00.65

Peak level 100.0 % Track quality 100.0 % Test CRC AF52A3A8 Copy CRC AF52A3A8 Accurately ripped (confidence 4) [4075C98F] Copy OK

Track 6

Filename J:\Torrented Stuff\Back to the Future II (flac)\06 - 'Alternate 1985'.wav

Pre-gap length 0:00:00.60

Peak level 91.3 % Track quality 100.0 % Test CRC CCFE8AAB Copy CRC CCFE8AAB Accurately ripped (confidence 4) [A0DDC7A9] Copy OK

Track 7

Filename J:\Torrented Stuff\Back to the Future II (flac)\07 - If They Ever Did.wav

Pre-gap length 0:00:01.73

Peak level 97.8 % Track quality 100.0 % Test CRC 714C74CE Copy CRC 714C74CE Accurately ripped (confidence 4) [6EFE206F] Copy OK

Track 8

Filename J:\Torrented Stuff\Back to the Future II (flac)\08 - Pair O' Docs.wav

Pre-gap length 0:00:04.20

Peak level 13.9 % Track quality 100.0 % Test CRC 3F5FB931 Copy CRC 3F5FB931 Accurately ripped (confidence 4) [4C79488A] Copy OK

Track 9

Filename J:\Torrented Stuff\Back to the Future II (flac)\09 - The Book.wav

Pre-gap length 0:00:00.45

Peak level 96.5 % Track quality 99.9 % Test CRC 151FA0E5 Copy CRC 151FA0E5 Accurately ripped (confidence 4) [4C9F493A] Copy OK

Track 10

Filename J:\Torrented Stuff\Back to the Future II (flac)\10 - Tunnel Chase.wav

Pre-gap length 0:00:01.43

Peak level 98.4 % Track quality 100.0 % Test CRC 7A2B204A Copy CRC 7A2B204A Accurately ripped (confidence 4) [F11427E2] Copy OK

Track 11

Filename J:\Torrented Stuff\Back to the Future II (flac)\11 - Burn The Book.wav

Pre-gap length 0:00:01.33

Peak level 100.0 % Track quality 100.0 % Test CRC 091C07AD Copy CRC 091C07AD Accurately ripped (confidence 4) [0CDDD2F4] Copy OK

Track 12

Filename J:\Torrented Stuff\Back to the Future II (flac)\12 - Western Union.wav

Pre-gap length 0:00:00.25

Peak level 96.2 % Track quality 100.0 % Test CRC BA9F5202 Copy CRC BA9F5202 Accurately ripped (confidence 4) [B3983975] Copy OK

Track 13

Filename J:\Torrented Stuff\Back to the Future II (flac)\13 - End Title.wav

Pre-gap length 0:00:00.50

Peak level 100.0 % Track quality 100.0 % Test CRC DBD27FF2 Copy CRC DBD27FF2 Accurately ripped (confidence 3) [E6C433DA] Copy OK

All tracks accurately ripped

No errors occurred

End of status report
REM GENRE SoundtrackREM DATE 1989REM DISCID 940A7D0DREM COMMENT "ExactAudioCopy v0.99pb4"PERFORMER "Alan Silvestri"TITLE "Back to the Future II"FILE "01 - Main Title.wav" WAVE TRACK 01 AUDIO TITLE "Main Title" PERFORMER "Alan Silvestri" INDEX 01 00:00:00 TRACK 02 AUDIO TITLE "The Future" PERFORMER "Alan Silvestri" INDEX 00 02:19:05FILE "02 - The Future.wav" WAVE INDEX 01 00:00:00 TRACK 03 AUDIO TITLE "Hoverboard Chase" PERFORMER "Alan Silvestri" INDEX 00 05:21:65FILE "03 - Hoverboard Chase.wav" WAVE INDEX 01 00:00:00FILE "04 - A Flying DeLorean.wav" WAVE TRACK 04 AUDIO TITLE "A Flying DeLorean" PERFORMER "Alan Silvestri" INDEX 01 00:00:00 TRACK 05 AUDIO TITLE "My Father!" PERFORMER "Alan Silvestri" INDEX 00 04:29:53FILE "05 - My Father!.wav" WAVE INDEX 01 00:00:00 TRACK 06 AUDIO TITLE "'Alternate 1985'" PERFORMER "Alan Silvestri" INDEX 00 02:04:00FILE "06 - 'Alternate 1985'.wav" WAVE INDEX 01 00:00:00 TRACK 07 AUDIO TITLE "If They Ever Did" PERFORMER "Alan Silvestri" INDEX 00 03:02:52FILE "07 - If They Ever Did.wav" WAVE INDEX 01 00:00:00 TRACK 08 AUDIO TITLE "Pair O' Docs" PERFORMER "Alan Silvestri" INDEX 00 03:53:52FILE "08 - Pair O' Docs.wav" WAVE INDEX 01 00:00:00 TRACK 09 AUDIO TITLE "The Book" PERFORMER "Alan Silvestri" INDEX 00 01:26:58FILE "09 - The Book.wav" WAVE INDEX 01 00:00:00 TRACK 10 AUDIO TITLE "Tunnel Chase" PERFORMER "Alan Silvestri" INDEX 00 04:48:22FILE "10 - Tunnel Chase.wav" WAVE INDEX 01 00:00:00 TRACK 11 AUDIO TITLE "Burn the Book" PERFORMER "Alan Silvestri" INDEX 00 05:19:67FILE "11 - Burn the Book.wav" WAVE INDEX 01 00:00:00 TRACK 12 AUDIO TITLE "Western Union" PERFORMER "Alan Silvestri" INDEX 00 02:24:52FILE "12 - Western Union.wav" WAVE INDEX 01 00:00:00 TRACK 13 AUDIO TITLE "End Title" PERFORMER "Alan Silvestri" INDEX 00 01:52:13FILE "13 - End Title.wav" WAVE INDEX 01 00:00:00
[spoiler="2015 - Назад в будущее 2 / Back to the Future Part II [Expanded] (01:40:43)"]
CD1 - The Score
01 - Back to Back / It's Your Kids
02 - Main Title (Extended Version)
03 - The Future
04 - Chicken / Hoverboard Chase
05 - A Flying DeLorean?
06 - I'm in the Future / Biff Steals DeLorean
07 - Chicken Needles / Jenn Sees Jenn
08 - Biff's World / 27th Floor
09 - My Father
10 - "Alternate 1985"
11 - Gray's Sports Almanac / If They Ever Did
12 - Something Inconspicuous
13 - You'll Never Lose / Old New DeLorean
14 - Pair O' Docs
15 - The Book
16 - Nobody / Tunnel Chase
17 - Burn the Book
18 - He's Gone
19 - Western Union
20 - I'm Back / End Logo
21 - The West
22 - End Title

CD2 - The Extras
01 - Back to Back (Alternate)
02 - Main Title (Alternate)
03 - The Future (Alternate)
04 - Hoverboard Chase (Alternate)
05 - A Flying DeLorean (Alternate)
06 - Biff's World (Alternate)
07 - If They Ever Did (Alternate Segment)
08 - You'll Never Lose (Alternate)
09 - Western Union (Alternate #1)
10 - I'm Back (Alternate #1)
11 - Western Union (Alternate #2)
12 - I'm Back (Alternate #2)
13 - End Logo (Alternate)
14 - The West (Alternate)
15 - End Title (Alternate)
X Lossless Decoder version 20141129a (148.2)

XLD extraction logfile from 2015-11-11 14:54:53 -0800

Alan Silvestri / Back to the Future Part II (Expanded)

Used drive : OPTIARC DVD RW AD-5690H (revision 4AH5)Media type : Pressed CD

Ripper mode : XLD Secure RipperDisable audio cache : OK for the drive with a cache less than 1375KiBMake use of C2 pointers : NORead offset correction : 48Max retry count : 100Gap status : Analyzed, Appended (except HTOA)

TOC of the extracted CD Track | Start | Length | Start sector | End sector --------------------------------------------------------- 1 | 00:00:00 | 02:39:48 | 0 | 11972 2 | 02:39:48 | 03:21:28 | 11973 | 27075 3 | 06:01:01 | 05:23:55 | 27076 | 51355 4 | 11:24:56 | 03:13:56 | 51356 | 65886 5 | 14:38:37 | 04:30:24 | 65887 | 86160 6 | 19:08:61 | 02:13:50 | 86161 | 96185 7 | 21:22:36 | 02:57:46 | 96186 | 109506 8 | 24:20:07 | 02:09:60 | 109507 | 119241 9 | 26:29:67 | 02:04:44 | 119242 | 128585 10 | 28:34:36 | 03:04:11 | 128586 | 142396 11 | 31:38:47 | 04:27:66 | 142397 | 162487 12 | 36:06:38 | 01:34:49 | 162488 | 169586 13 | 37:41:12 | 03:20:11 | 169587 | 184597 14 | 41:01:23 | 01:28:04 | 184598 | 191201 15 | 42:29:27 | 04:51:18 | 191202 | 213044 16 | 47:20:45 | 05:48:08 | 213045 | 239152 17 | 53:08:53 | 02:25:64 | 239153 | 250091 18 | 55:34:42 | 00:44:42 | 250092 | 253433 19 | 56:19:09 | 01:53:73 | 253434 | 261981 20 | 58:13:07 | 01:00:46 | 261982 | 266527 21 | 59:13:53 | 00:58:66 | 266528 | 270943 22 | 60:12:44 | 04:37:12 | 270944 | 291730

AccurateRip Summary Disc not found in AccurateRip DB.

All Tracks Album gain : -4.98 dB Peak : 0.944000 Statistics Read error : 0 Jitter error (maybe fixed) : 0 Retry sector count : 0 Damaged sector count : 0

Track 01 Filename : /Users/daveyjones/Desktop/_NEW RIPS/Alan Silvestri - 2015 - Back to the Future Part II (Expanded) [FLAC]/01 Back to Back--It's Your Kids.flac /Users/daveyjones/Desktop/_NEW RIPS/Alan Silvestri - 2015 - Back to the Future Part II (Expanded) [320]/01 Back to Back--It's Your Kids.mp3 /Users/daveyjones/Desktop/_NEW RIPS/Alan Silvestri - 2015 - Back to the Future Part II (Expanded) [MP3 V0]/01 Back to Back--It's Your Kids.mp3 Pre-gap length : 00:02:00

Track gain : -3.64 dB Peak : 0.944000 CRC32 hash (test run) : 06E095D7 CRC32 hash : 06E095D7 CRC32 hash (skip zero) : A93788DB AccurateRip v1 signature : 2F713992 AccurateRip v2 signature : EB8A2D7C ->Track not present in AccurateRip database. Statistics Read error : 0 Jitter error (maybe fixed) : 0 Retry sector count : 0 Damaged sector count : 0

Track 02 Filename : /Users/daveyjones/Desktop/_NEW RIPS/Alan Silvestri - 2015 - Back to the Future Part II (Expanded) [FLAC]/02 Main Title (Extended Version).flac /Users/daveyjones/Desktop/_NEW RIPS/Alan Silvestri - 2015 - Back to the Future Part II (Expanded) [320]/02 Main Title (Extended Version).mp3 /Users/daveyjones/Desktop/_NEW RIPS/Alan Silvestri - 2015 - Back to the Future Part II (Expanded) [MP3 V0]/02 Main Title (Extended Version).mp3 Pre-gap length : 00:01:38

Track gain : -7.15 dB Peak : 0.944000 CRC32 hash (test run) : 82192395 CRC32 hash : 82192395 CRC32 hash (skip zero) : BBA531FC AccurateRip v1 signature : 0B093CF4 AccurateRip v2 signature : A4A7BB28 ->Track not present in AccurateRip database. Statistics Read error : 0 Jitter error (maybe fixed) : 0 Retry sector count : 0 Damaged sector count : 0

Track 03 Filename : /Users/daveyjones/Desktop/_NEW RIPS/Alan Silvestri - 2015 - Back to the Future Part II (Expanded) [FLAC]/03 The Future.flac /Users/daveyjones/Desktop/_NEW RIPS/Alan Silvestri - 2015 - Back to the Future Part II (Expanded) [320]/03 The Future.mp3 /Users/daveyjones/Desktop/_NEW RIPS/Alan Silvestri - 2015 - Back to the Future Part II (Expanded) [MP3 V0]/03 The Future.mp3 Pre-gap length : 00:01:38

Track gain : 0.93 dB Peak : 0.944000 CRC32 hash (test run) : F0AD3826 CRC32 hash : F0AD3826 CRC32 hash (skip zero) : BDAF1727 AccurateRip v1 signature : 2588FA59 AccurateRip v2 signature : BC418CFF ->Track not present in AccurateRip database. Statistics Read error : 0 Jitter error (maybe fixed) : 0 Retry sector count : 0 Damaged sector count : 0

Track 04 Filename : /Users/daveyjones/Desktop/_NEW RIPS/Alan Silvestri - 2015 - Back to the Future Part II (Expanded) [FLAC]/04 Chicken--Hoverboard Chase.flac /Users/daveyjones/Desktop/_NEW RIPS/Alan Silvestri - 2015 - Back to the Future Part II (Expanded) [320]/04 Chicken--Hoverboard Chase.mp3 /Users/daveyjones/Desktop/_NEW RIPS/Alan Silvestri - 2015 - Back to the Future Part II (Expanded) [MP3 V0]/04 Chicken--Hoverboard Chase.mp3 Pre-gap length : 00:01:38

Track gain : -6.08 dB Peak : 0.944000 CRC32 hash (test run) : 748D5495 CRC32 hash : 748D5495 CRC32 hash (skip zero) : DB1007F3 AccurateRip v1 signature : FF178653 AccurateRip v2 signature : 3C4C01DE ->Track not present in AccurateRip database. Statistics Read error : 0 Jitter error (maybe fixed) : 0 Retry sector count : 0 Damaged sector count : 0

Track 05 Filename : /Users/daveyjones/Desktop/_NEW RIPS/Alan Silvestri - 2015 - Back to the Future Part II (Expanded) [FLAC]/05 A Flying DeLorean.flac /Users/daveyjones/Desktop/_NEW RIPS/Alan Silvestri - 2015 - Back to the Future Part II (Expanded) [320]/05 A Flying DeLorean.mp3 /Users/daveyjones/Desktop/_NEW RIPS/Alan Silvestri - 2015 - Back to the Future Part II (Expanded) [MP3 V0]/05 A Flying DeLorean.mp3 Pre-gap length : 00:01:38

Track gain : -2.57 dB Peak : 0.944000 CRC32 hash (test run) : D6284439 CRC32 hash : D6284439 CRC32 hash (skip zero) : 140A80B2 AccurateRip v1 signature : D6987F94 AccurateRip v2 signature : 908728A2 ->Track not present in AccurateRip database. Statistics Read error : 0 Jitter error (maybe fixed) : 0 Retry sector count : 0 Damaged sector count : 0

Track 06 Filename : /Users/daveyjones/Desktop/_NEW RIPS/Alan Silvestri - 2015 - Back to the Future Part II (Expanded) [FLAC]/06 I'm in the Future--Biff Steals DeLorean.flac /Users/daveyjones/Desktop/_NEW RIPS/Alan Silvestri - 2015 - Back to the Future Part II (Expanded) [320]/06 I'm in the Future--Biff Steals DeLorean.mp3 /Users/daveyjones/Desktop/_NEW RIPS/Alan Silvestri - 2015 - Back to the Future Part II (Expanded) [MP3 V0]/06 I'm in the Future--Biff Steals DeLorean.mp3 Pre-gap length : 00:01:37

Track gain : 0.87 dB Peak : 0.943970 CRC32 hash (test run) : 84944FC8 CRC32 hash : 84944FC8 CRC32 hash (skip zero) : A8C1DBC5 AccurateRip v1 signature : 3C9EFDB6 AccurateRip v2 signature : 8336A806 ->Track not present in AccurateRip database. Statistics Read error : 0 Jitter error (maybe fixed) : 0 Retry sector count : 0 Damaged sector count : 0

Track 07 Filename : /Users/daveyjones/Desktop/_NEW RIPS/Alan Silvestri - 2015 - Back to the Future Part II (Expanded) [FLAC]/07 Chicken Needles--Jenn Sees Jenn.flac /Users/daveyjones/Desktop/_NEW RIPS/Alan Silvestri - 2015 - Back to the Future Part II (Expanded) [320]/07 Chicken Needles--Jenn Sees Jenn.mp3 /Users/daveyjones/Desktop/_NEW RIPS/Alan Silvestri - 2015 - Back to the Future Part II (Expanded) [MP3 V0]/07 Chicken Needles--Jenn Sees Jenn.mp3 Pre-gap length : 00:01:38

Track gain : -2.43 dB Peak : 0.944000 CRC32 hash (test run) : 36CF00D0 CRC32 hash : 36CF00D0 CRC32 hash (skip zero) : AC600BA0 AccurateRip v1 signature : 039A4925 AccurateRip v2 signature : 09EA52A6 ->Track not present in AccurateRip database. Statistics Read error : 0 Jitter error (maybe fixed) : 0 Retry sector count : 0 Damaged sector count : 0

Track 08 Filename : /Users/daveyjones/Desktop/_NEW RIPS/Alan Silvestri - 2015 - Back to the Future Part II (Expanded) [FLAC]/08 Biff's World--27th Floor.flac /Users/daveyjones/Desktop/_NEW RIPS/Alan Silvestri - 2015 - Back to the Future Part II (Expanded) [320]/08 Biff's World--27th Floor.mp3 /Users/daveyjones/Desktop/_NEW RIPS/Alan Silvestri - 2015 - Back to the Future Part II (Expanded) [MP3 V0]/08 Biff's World--27th Floor.mp3 Pre-gap length : 00:01:38

Track gain : -5.21 dB Peak : 0.944000 CRC32 hash (test run) : DFA803C3 CRC32 hash : DFA803C3 CRC32 hash (skip zero) : 71833D03 AccurateRip v1 signature : 13F79BA3 AccurateRip v2 signature : 023DE255 ->Track not present in AccurateRip database. Statistics Read error : 0 Jitter error (maybe fixed) : 0 Retry sector count : 0 Damaged sector count : 0

Track 09 Filename : /Users/daveyjones/Desktop/_NEW RIPS/Alan Silvestri - 2015 - Back to the Future Part II (Expanded) [FLAC]/09 My Father.flac /Users/daveyjones/Desktop/_NEW RIPS/Alan Silvestri - 2015 - Back to the Future Part II (Expanded) [320]/09 My Father.mp3 /Users/daveyjones/Desktop/_NEW RIPS/Alan Silvestri - 2015 - Back to the Future Part II (Expanded) [MP3 V0]/09 My Father.mp3 Pre-gap length : 00:01:38

Track gain : -5.53 dB Peak : 0.944000 CRC32 hash (test run) : A713BE48 CRC32 hash : A713BE48 CRC32 hash (skip zero) : F7B7B7ED AccurateRip v1 signature : 1114081F AccurateRip v2 signature : C7CC4E15 ->Track not present in AccurateRip database. Statistics Read error : 0 Jitter error (maybe fixed) : 0 Retry sector count : 0 Damaged sector count : 0

Track 10 Filename : /Users/daveyjones/Desktop/_NEW RIPS/Alan Silvestri - 2015 - Back to the Future Part II (Expanded) [FLAC]/10 Alternate 1985.flac /Users/daveyjones/Desktop/_NEW RIPS/Alan Silvestri - 2015 - Back to the Future Part II (Expanded) [320]/10 Alternate 1985.mp3 /Users/daveyjones/Desktop/_NEW RIPS/Alan Silvestri - 2015 - Back to the Future Part II (Expanded) [MP3 V0]/10 Alternate 1985.mp3 Pre-gap length : 00:01:38

Track gain : 0.06 dB Peak : 0.944000 CRC32 hash (test run) : 07E85629 CRC32 hash : 07E85629 CRC32 hash (skip zero) : BEB6C2A0 AccurateRip v1 signature : 3A8995BB AccurateRip v2 signature : 51BB3C9B ->Track not present in AccurateRip database. Statistics Read error : 0 Jitter error (maybe fixed) : 0 Retry sector count : 0 Damaged sector count : 0

Track 11 Filename : /Users/daveyjones/Desktop/_NEW RIPS/Alan Silvestri - 2015 - Back to the Future Part II (Expanded) [FLAC]/11 Gray's Sports Almanac--If They Ever Did.flac /Users/daveyjones/Desktop/_NEW RIPS/Alan Silvestri - 2015 - Back to the Future Part II (Expanded) [320]/11 Gray's Sports Almanac--If They Ever Did.mp3 /Users/daveyjones/Desktop/_NEW RIPS/Alan Silvestri - 2015 - Back to the Future Part II (Expanded) [MP3 V0]/11 Gray's Sports Almanac--If They Ever Did.mp3 Pre-gap length : 00:01:38

Track gain : -4.42 dB Peak : 0.944000 CRC32 hash (test run) : 677B8870 CRC32 hash : 677B8870 CRC32 hash (skip zero) : 10E040F4 AccurateRip v1 signature : A53B6372 AccurateRip v2 signature : 05848D2F ->Track not present in AccurateRip database. Statistics Read error : 0 Jitter error (maybe fixed) : 0 Retry sector count : 0 Damaged sector count : 0

Track 12 Filename : /Users/daveyjones/Desktop/_NEW RIPS/Alan Silvestri - 2015 - Back to the Future Part II (Expanded) [FLAC]/12 Something Inconspicuous.flac /Users/daveyjones/Desktop/_NEW RIPS/Alan Silvestri - 2015 - Back to the Future Part II (Expanded) [320]/12 Something Inconspicuous.mp3 /Users/daveyjones/Desktop/_NEW RIPS/Alan Silvestri - 2015 - Back to the Future Part II (Expanded) [MP3 V0]/12 Something Inconspicuous.mp3 Pre-gap length : 00:01:38

Track gain : -2.41 dB Peak : 0.943970 CRC32 hash (test run) : A9A6C19E CRC32 hash : A9A6C19E CRC32 hash (skip zero) : D092CAF2 AccurateRip v1 signature : B92EFF69 AccurateRip v2 signature : D70F1425 ->Track not present in AccurateRip database. Statistics Read error : 0 Jitter error (maybe fixed) : 0 Retry sector count : 0 Damaged sector count : 0

Track 13 Filename : /Users/daveyjones/Desktop/_NEW RIPS/Alan Silvestri - 2015 - Back to the Future Part II (Expanded) [FLAC]/13 You'll Never Lose--Old New DeLorean.flac /Users/daveyjones/Desktop/_NEW RIPS/Alan Silvestri - 2015 - Back to the Future Part II (Expanded) [320]/13 You'll Never Lose--Old New DeLorean.mp3 /Users/daveyjones/Desktop/_NEW RIPS/Alan Silvestri - 2015 - Back to the Future Part II (Expanded) [MP3 V0]/13 You'll Never Lose--Old New DeLorean.mp3 Pre-gap length : 00:01:00

Track gain : 1.86 dB Peak : 0.943970 CRC32 hash (test run) : 0F8431EA CRC32 hash : 0F8431EA CRC32 hash (skip zero) : C16E3EE4 AccurateRip v1 signature : 1B37726D AccurateRip v2 signature : D22C79FF ->Track not present in AccurateRip database. Statistics Read error : 0 Jitter error (maybe fixed) : 0 Retry sector count : 0 Damaged sector count : 0

Track 14 Filename : /Users/daveyjones/Desktop/_NEW RIPS/Alan Silvestri - 2015 - Back to the Future Part II (Expanded) [FLAC]/14 Pair O' Docs.flac /Users/daveyjones/Desktop/_NEW RIPS/Alan Silvestri - 2015 - Back to the Future Part II (Expanded) [320]/14 Pair O' Docs.mp3 /Users/daveyjones/Desktop/_NEW RIPS/Alan Silvestri - 2015 - Back to the Future Part II (Expanded) [MP3 V0]/14 Pair O' Docs.mp3 Pre-gap length : 00:01:38

Track gain : 5.04 dB Peak : 0.287537 CRC32 hash (test run) : A2F9155F CRC32 hash : A2F9155F CRC32 hash (skip zero) : D579509E AccurateRip v1 signature : F3B107B5 AccurateRip v2 signature : 32D738F1 ->Track not present in AccurateRip database. Statistics Read error : 0 Jitter error (maybe fixed) : 0 Retry sector count : 0 Damaged sector count : 0

Track 15 Filename : /Users/daveyjones/Desktop/_NEW RIPS/Alan Silvestri - 2015 - Back to the Future Part II (Expanded) [FLAC]/15 The Book.flac /Users/daveyjones/Desktop/_NEW RIPS/Alan Silvestri - 2015 - Back to the Future Part II (Expanded) [320]/15 The Book.mp3 /Users/daveyjones/Desktop/_NEW RIPS/Alan Silvestri - 2015 - Back to the Future Part II (Expanded) [MP3 V0]/15 The Book.mp3 Pre-gap length : 00:01:38

Track gain : -0.06 dB Peak : 0.944000 CRC32 hash (test run) : B9A5135C CRC32 hash : B9A5135C CRC32 hash (skip zero) : ED5B9B7F AccurateRip v1 signature : 56F29BCD AccurateRip v2 signature : 884C1E35 ->Track not present in AccurateRip database. Statistics Read error : 0 Jitter error (maybe fixed) : 0 Retry sector count : 0 Damaged sector count : 0

Track 16 Filename : /Users/daveyjones/Desktop/_NEW RIPS/Alan Silvestri - 2015 - Back to the Future Part II (Expanded) [FLAC]/16 Nobody--Tunnel Chase.flac /Users/daveyjones/Desktop/_NEW RIPS/Alan Silvestri - 2015 - Back to the Future Part II (Expanded) [320]/16 Nobody--Tunnel Chase.mp3 /Users/daveyjones/Desktop/_NEW RIPS/Alan Silvestri - 2015 - Back to the Future Part II (Expanded) [MP3 V0]/16 Nobody--Tunnel Chase.mp3 Pre-gap length : 00:01:38

Track gain : -5.52 dB Peak : 0.944000 CRC32 hash (test run) : 211A9954 CRC32 hash : 211A9954 CRC32 hash (skip zero) : E90C335C AccurateRip v1 signature : 3A05FA7F AccurateRip v2 signature : AD26DB1A ->Track not present in AccurateRip database. Statistics Read error : 0 Jitter error (maybe fixed) : 0 Retry sector count : 0 Damaged sector count : 0

Track 17 Filename : /Users/daveyjones/Desktop/_NEW RIPS/Alan Silvestri - 2015 - Back to the Future Part II (Expanded) [FLAC]/17 Burn the Book.flac /Users/daveyjones/Desktop/_NEW RIPS/Alan Silvestri - 2015 - Back to the Future Part II (Expanded) [320]/17 Burn the Book.mp3 /Users/daveyjones/Desktop/_NEW RIPS/Alan Silvestri - 2015 - Back to the Future Part II (Expanded) [MP3 V0]/17 Burn the Book.mp3 Pre-gap length : 00:01:37

Track gain : -0.54 dB Peak : 0.944000 CRC32 hash (test run) : 271ADFB9 CRC32 hash : 271ADFB9 CRC32 hash (skip zero) : 5E88F713 AccurateRip v1 signature : 6E504F64 AccurateRip v2 signature : A0CA4CCD ->Track not present in AccurateRip database. Statistics Read error : 0 Jitter error (maybe fixed) : 0 Retry sector count : 0 Damaged sector count : 0

Track 18 Filename : /Users/daveyjones/Desktop/_NEW RIPS/Alan Silvestri - 2015 - Back to the Future Part II (Expanded) [FLAC]/18 He's Gone.flac /Users/daveyjones/Desktop/_NEW RIPS/Alan Silvestri - 2015 - Back to the Future Part II (Expanded) [320]/18 He's Gone.mp3 /Users/daveyjones/Desktop/_NEW RIPS/Alan Silvestri - 2015 - Back to the Future Part II (Expanded) [MP3 V0]/18 He's Gone.mp3 Pre-gap length : 00:01:38

Track gain : 4.95 dB Peak : 0.529053 CRC32 hash (test run) : 3D28188E CRC32 hash : 3D28188E CRC32 hash (skip zero) : C56E7235 AccurateRip v1 signature : 5B07C331 AccurateRip v2 signature : 470B4062 ->Track not present in AccurateRip database. Statistics Read error : 0 Jitter error (maybe fixed) : 0 Retry sector count : 0 Damaged sector count : 0

Track 19 Filename : /Users/daveyjones/Desktop/_NEW RIPS/Alan Silvestri - 2015 - Back to the Future Part II (Expanded) [FLAC]/19 Western Union.flac /Users/daveyjones/Desktop/_NEW RIPS/Alan Silvestri - 2015 - Back to the Future Part II (Expanded) [320]/19 Western Union.mp3 /Users/daveyjones/Desktop/_NEW RIPS/Alan Silvestri - 2015 - Back to the Future Part II (Expanded) [MP3 V0]/19 Western Union.mp3 Pre-gap length : 00:01:38

Track gain : -7.69 dB Peak : 0.944000 CRC32 hash (test run) : E201BABB CRC32 hash : E201BABB CRC32 hash (skip zero) : C6ACF129 AccurateRip v1 signature : 625C4B41 AccurateRip v2 signature : 9EB0D908 ->Track not present in AccurateRip database. Statistics Read error : 0 Jitter error (maybe fixed) : 0 Retry sector count : 0 Damaged sector count : 0

Track 20 Filename : /Users/daveyjones/Desktop/_NEW RIPS/Alan Silvestri - 2015 - Back to the Future Part II (Expanded) [FLAC]/20 I'm Back--End Logo.flac /Users/daveyjones/Desktop/_NEW RIPS/Alan Silvestri - 2015 - Back to the Future Part II (Expanded) [320]/20 I'm Back--End Logo.mp3 /Users/daveyjones/Desktop/_NEW RIPS/Alan Silvestri - 2015 - Back to the Future Part II (Expanded) [MP3 V0]/20 I'm Back--End Logo.mp3 Pre-gap length : 00:01:38

Track gain : -7.48 dB Peak : 0.944000 CRC32 hash (test run) : 7F5D8DE5 CRC32 hash : 7F5D8DE5 CRC32 hash (skip zero) : 819B7442 AccurateRip v1 signature : 710AB4E1 AccurateRip v2 signature : EC96BAC2 ->Track not present in AccurateRip database. Statistics Read error : 0 Jitter error (maybe fixed) : 0 Retry sector count : 0 Damaged sector count : 0

Track 21 Filename : /Users/daveyjones/Desktop/_NEW RIPS/Alan Silvestri - 2015 - Back to the Future Part II (Expanded) [FLAC]/21 The West.flac /Users/daveyjones/Desktop/_NEW RIPS/Alan Silvestri - 2015 - Back to the Future Part II (Expanded) [320]/21 The West.mp3 /Users/daveyjones/Desktop/_NEW RIPS/Alan Silvestri - 2015 - Back to the Future Part II (Expanded) [MP3 V0]/21 The West.mp3 Pre-gap length : 00:01:38

Track gain : -6.60 dB Peak : 0.944000 CRC32 hash (test run) : E6BC3D23 CRC32 hash : E6BC3D23 CRC32 hash (skip zero) : 4BCE5DFB AccurateRip v1 signature : 9C40AE90 AccurateRip v2 signature : 19762711 ->Track not present in AccurateRip database. Statistics Read error : 0 Jitter error (maybe fixed) : 0 Retry sector count : 0 Damaged sector count : 0

Track 22 Filename : /Users/daveyjones/Desktop/_NEW RIPS/Alan Silvestri - 2015 - Back to the Future Part II (Expanded) [FLAC]/22 End Title.flac /Users/daveyjones/Desktop/_NEW RIPS/Alan Silvestri - 2015 - Back to the Future Part II (Expanded) [320]/22 End Title.mp3 /Users/daveyjones/Desktop/_NEW RIPS/Alan Silvestri - 2015 - Back to the Future Part II (Expanded) [MP3 V0]/22 End Title.mp3 Pre-gap length : 00:01:38

Track gain : -6.84 dB Peak : 0.944000 CRC32 hash (test run) : 436044A5 CRC32 hash : 436044A5 CRC32 hash (skip zero) : D385F712 AccurateRip v1 signature : DC770CAC AccurateRip v2 signature : 6B395235 ->Track not present in AccurateRip database. Statistics Read error : 0 Jitter error (maybe fixed) : 0 Retry sector count : 0 Damaged sector count : 0

No errors occurred

End of status report

-----BEGIN XLD SIGNATURE-----3aumXiR3GgcmmqMeBw4H.Q5s63TMz.AjNaz3hbt7pLjeGr6skVbjTOOvM6INiJ4kWbRE2rywOp8Ee_k4RDycGD0bsdVmyIG71UxwumO-----END XLD SIGNATURE-----
TITLE "Back to the Future Part II (Expanded)"PERFORMER "Alan Silvestri"CATALOG 0720258533623REM GENRE "Soundtrack"REM DATE "2015"REM DISCNUMBER 1REM TOTALDISCS 2REM DISCID 310F3116REM REPLAYGAIN_ALBUM_GAIN -4.98 dBREM REPLAYGAIN_ALBUM_PEAK 0.944000FILE "01 - Back to Back - It's Your Kids.wav" WAVE TRACK 01 AUDIO TITLE "Back to Back / It's Your Kids" ISRC USQ4E1501748 REM REPLAYGAIN_TRACK_GAIN -3.64 dB REM REPLAYGAIN_TRACK_PEAK 0.944000 INDEX 01 00:00:00 TRACK 02 AUDIO TITLE "Main Title (Extended Version)" ISRC USQ4E1501749 REM REPLAYGAIN_TRACK_GAIN -7.15 dB REM REPLAYGAIN_TRACK_PEAK 0.944000 INDEX 00 02:38:10FILE "02 - Main Title (Extended Version).wav" WAVE INDEX 01 00:00:00 TRACK 03 AUDIO TITLE "The Future" ISRC USMC18930697 REM REPLAYGAIN_TRACK_GAIN 0.93 dB REM REPLAYGAIN_TRACK_PEAK 0.944000 INDEX 00 03:19:65FILE "03 - The Future.wav" WAVE INDEX 01 00:00:00 TRACK 04 AUDIO TITLE "Chicken / Hoverboard Chase" ISRC USQ4E1501750 REM REPLAYGAIN_TRACK_GAIN -6.08 dB REM REPLAYGAIN_TRACK_PEAK 0.944000 INDEX 00 05:22:17FILE "04 - Chicken - Hoverboard Chase.wav" WAVE INDEX 01 00:00:00 TRACK 05 AUDIO TITLE "A Flying DeLorean" ISRC USMC18936099 REM REPLAYGAIN_TRACK_GAIN -2.57 dB REM REPLAYGAIN_TRACK_PEAK 0.944000 INDEX 00 03:12:18FILE "05 - A Flying DeLorean.wav" WAVE INDEX 01 00:00:00 TRACK 06 AUDIO TITLE "I'm in the Future / Biff Steals DeLorean" ISRC USQ4E1501751 REM REPLAYGAIN_TRACK_GAIN 0.87 dB REM REPLAYGAIN_TRACK_PEAK 0.943970 INDEX 00 04:28:62FILE "06 - I'm in the Future - Biff Steals DeLorean.wav" WAVE INDEX 01 00:00:00 TRACK 07 AUDIO TITLE "Chicken Needles / Jenn Sees Jenn" ISRC USQ4E1501752 REM REPLAYGAIN_TRACK_GAIN -2.43 dB REM REPLAYGAIN_TRACK_PEAK 0.944000 INDEX 00 02:12:12FILE "07 - Chicken Needles - Jenn Sees Jenn.wav" WAVE INDEX 01 00:00:00 TRACK 08 AUDIO TITLE "Biff's World - 27th Floor" ISRC USQ4E1501753 REM REPLAYGAIN_TRACK_GAIN -5.21 dB REM REPLAYGAIN_TRACK_PEAK 0.944000 INDEX 00 02:56:08FILE "08 - Biff's World - 27th Floor.wav" WAVE INDEX 01 00:00:00 TRACK 09 AUDIO TITLE "My Father" ISRC USMC18930700 REM REPLAYGAIN_TRACK_GAIN -5.53 dB REM REPLAYGAIN_TRACK_PEAK 0.944000 INDEX 00 02:08:22FILE "09 - My Father.wav" WAVE INDEX 01 00:00:00 TRACK 10 AUDIO TITLE "'Alternate 1985'" ISRC USMC18930701 REM REPLAYGAIN_TRACK_GAIN 0.06 dB REM REPLAYGAIN_TRACK_PEAK 0.944000 INDEX 00 02:03:06FILE "10 - 'Alternate 1985'.wav" WAVE INDEX 01 00:00:00 TRACK 11 AUDIO TITLE "Gray's Sports Almanac / If They Ever Did" ISRC USQ4E1501754 REM REPLAYGAIN_TRACK_GAIN -4.42 dB REM REPLAYGAIN_TRACK_PEAK 0.944000 INDEX 00 03:02:48FILE "11 - Gray's Sports Almanac - If They Ever Did.wav" WAVE INDEX 01 00:00:00 TRACK 12 AUDIO TITLE "Something Inconspicuous" ISRC USQ4E1501755 REM REPLAYGAIN_TRACK_GAIN -2.41 dB REM REPLAYGAIN_TRACK_PEAK 0.943970 INDEX 00 04:26:28FILE "12 - Something Inconspicuous.wav" WAVE INDEX 01 00:00:00 TRACK 13 AUDIO TITLE "You'll Never Lose / Old New DeLorean" ISRC USQ4E1501756 REM REPLAYGAIN_TRACK_GAIN 1.86 dB REM REPLAYGAIN_TRACK_PEAK 0.943970 INDEX 00 01:33:49FILE "13 - You'll Never Lose - Old New DeLorean.wav" WAVE INDEX 01 00:00:00 TRACK 14 AUDIO TITLE "Pair O' Docs" ISRC USMC18930703 REM REPLAYGAIN_TRACK_GAIN 5.04 dB REM REPLAYGAIN_TRACK_PEAK 0.287537 INDEX 00 03:18:48FILE "14 - Pair O' Docs.wav" WAVE INDEX 01 00:00:00 TRACK 15 AUDIO TITLE "The Book" ISRC USMC18930704 REM REPLAYGAIN_TRACK_GAIN -0.06 dB REM REPLAYGAIN_TRACK_PEAK 0.944000 INDEX 00 01:26:41FILE "15 - The Book.wav" WAVE INDEX 01 00:00:00 TRACK 16 AUDIO TITLE "Nobody - Tunnel Chase" ISRC USQ4E1501757 REM REPLAYGAIN_TRACK_GAIN -5.52 dB REM REPLAYGAIN_TRACK_PEAK 0.944000 INDEX 00 04:49:55FILE "16 - Nobody - Tunnel Chase.wav" WAVE INDEX 01 00:00:00 TRACK 17 AUDIO TITLE "Burn the Book" ISRC USMC18930706 REM REPLAYGAIN_TRACK_GAIN -0.54 dB REM REPLAYGAIN_TRACK_PEAK 0.944000 INDEX 00 05:46:46FILE "17 - Burn the Book.wav" WAVE INDEX 01 00:00:00 TRACK 18 AUDIO TITLE "He's Gone" ISRC USQ4E1501758 REM REPLAYGAIN_TRACK_GAIN 4.95 dB REM REPLAYGAIN_TRACK_PEAK 0.529053 INDEX 00 02:24:26FILE "18 - He's Gone.wav" WAVE INDEX 01 00:00:00 TRACK 19 AUDIO TITLE "Western Union" ISRC USMC18930707 REM REPLAYGAIN_TRACK_GAIN -7.69 dB REM REPLAYGAIN_TRACK_PEAK 0.944000 INDEX 00 00:43:04FILE "19 - Western Union.wav" WAVE INDEX 01 00:00:00 TRACK 20 AUDIO TITLE "I'm Back - End Logo" ISRC USQ4E1501759 REM REPLAYGAIN_TRACK_GAIN -7.48 dB REM REPLAYGAIN_TRACK_PEAK 0.944000 INDEX 00 01:52:35FILE "20 - I'm Back - End Logo.wav" WAVE INDEX 01 00:00:00 TRACK 21 AUDIO TITLE "The West" ISRC USQ4E1501760 REM REPLAYGAIN_TRACK_GAIN -6.60 dB REM REPLAYGAIN_TRACK_PEAK 0.944000 INDEX 00 00:59:08FILE "21 - The West.wav" WAVE INDEX 01 00:00:00 TRACK 22 AUDIO TITLE "End Title" ISRC USMC18930708 REM REPLAYGAIN_TRACK_GAIN -6.84 dB REM REPLAYGAIN_TRACK_PEAK 0.944000 INDEX 00 00:57:28FILE "22 - End Title.wav" WAVE INDEX 01 00:00:00
X Lossless Decoder version 20141129a (148.2)

XLD extraction logfile from 2015-11-11 15:35:38 -0800

Alan Silvestri / Back to the Future Part II (Expanded)

Used drive : OPTIARC DVD RW AD-5690H (revision 4AH5)Media type : Pressed CD

Ripper mode : XLD Secure RipperDisable audio cache : OK for the drive with a cache less than 1375KiBMake use of C2 pointers : NORead offset correction : 48Max retry count : 100Gap status : Analyzed, Appended (except HTOA)

TOC of the extracted CD Track | Start | Length | Start sector | End sector --------------------------------------------------------- 1 | 00:00:00 | 01:03:46 | 0 | 4770 2 | 01:03:46 | 03:55:52 | 4771 | 22447 3 | 04:59:23 | 05:25:21 | 22448 | 46843 4 | 10:24:44 | 02:51:54 | 46844 | 59722 5 | 13:16:23 | 04:34:07 | 59723 | 80279 6 | 17:50:30 | 01:36:52 | 80280 | 87531 7 | 19:27:07 | 02:07:37 | 87532 | 97093 8 | 21:34:44 | 02:54:07 | 97094 | 110150 9 | 24:28:51 | 02:06:25 | 110151 | 119625 10 | 26:35:01 | 00:35:39 | 119626 | 122289 11 | 27:10:40 | 02:01:08 | 122290 | 131372 12 | 29:11:48 | 00:25:69 | 131373 | 133316 13 | 29:37:42 | 00:18:57 | 133317 | 134723 14 | 29:56:24 | 01:19:36 | 134724 | 140684 15 | 31:15:60 | 04:37:52 | 140685 | 161511

AccurateRip Summary Disc not found in AccurateRip DB.

All Tracks Album gain : -6.30 dB Peak : 0.944000 Statistics Read error : 0 Jitter error (maybe fixed) : 0 Retry sector count : 0 Damaged sector count : 0

Track 01 Filename : /Users/daveyjones/Desktop/_NEW RIPS/Alan Silvestri - 2015 - Back to the Future Part II (Expanded) [FLAC]/01 Back to Back (Alternate).flac /Users/daveyjones/Desktop/_NEW RIPS/Alan Silvestri - 2015 - Back to the Future Part II (Expanded) [320]/01 Back to Back (Alternate).mp3 /Users/daveyjones/Desktop/_NEW RIPS/Alan Silvestri - 2015 - Back to the Future Part II (Expanded) [MP3 V0]/01 Back to Back (Alternate).mp3 Pre-gap length : 00:02:00

Track gain : -3.09 dB Peak : 0.943970 CRC32 hash (test run) : 6B7EB9B3 CRC32 hash : 6B7EB9B3 CRC32 hash (skip zero) : 711784CD AccurateRip v1 signature : F4A08F7E AccurateRip v2 signature : 29A0F746 ->Track not present in AccurateRip database. Statistics Read error : 0 Jitter error (maybe fixed) : 0 Retry sector count : 0 Damaged sector count : 0

Track 02 Filename : /Users/daveyjones/Desktop/_NEW RIPS/Alan Silvestri - 2015 - Back to the Future Part II (Expanded) [FLAC]/02 Main Title (Alternate).flac /Users/daveyjones/Desktop/_NEW RIPS/Alan Silvestri - 2015 - Back to the Future Part II (Expanded) [320]/02 Main Title (Alternate).mp3 /Users/daveyjones/Desktop/_NEW RIPS/Alan Silvestri - 2015 - Back to the Future Part II (Expanded) [MP3 V0]/02 Main Title (Alternate).mp3 Pre-gap length : 00:01:38

Track gain : -6.34 dB Peak : 0.944000 CRC32 hash (test run) : 6EEE2437 CRC32 hash : 6EEE2437 CRC32 hash (skip zero) : 941F6AE9 AccurateRip v1 signature : 06BA4BE6 AccurateRip v2 signature : 5BC6799A ->Track not present in AccurateRip database. Statistics Read error : 0 Jitter error (maybe fixed) : 0 Retry sector count : 0 Damaged sector count : 0

Track 03 Filename : /Users/daveyjones/Desktop/_NEW RIPS/Alan Silvestri - 2015 - Back to the Future Part II (Expanded) [FLAC]/03 The Future (Alternate).flac /Users/daveyjones/Desktop/_NEW RIPS/Alan Silvestri - 2015 - Back to the Future Part II (Expanded) [320]/03 The Future (Alternate).mp3 /Users/daveyjones/Desktop/_NEW RIPS/Alan Silvestri - 2015 - Back to the Future Part II (Expanded) [MP3 V0]/03 The Future (Alternate).mp3 Pre-gap length : 00:01:38

Track gain : -0.99 dB Peak : 0.944000 CRC32 hash (test run) : 5A529A3D CRC32 hash : 5A529A3D CRC32 hash (skip zero) : 68301E3A AccurateRip v1 signature : 6814264D AccurateRip v2 signature : 55422DAA ->Track not present in AccurateRip database. Statistics Read error : 0 Jitter error (maybe fixed) : 0 Retry sector count : 0 Damaged sector count : 0

Track 04 Filename : /Users/daveyjones/Desktop/_NEW RIPS/Alan Silvestri - 2015 - Back to the Future Part II (Expanded) [FLAC]/04 Hoverboard Chase (Alternate).flac /Users/daveyjones/Desktop/_NEW RIPS/Alan Silvestri - 2015 - Back to the Future Part II (Expanded) [320]/04 Hoverboard Chase (Alternate).mp3 /Users/daveyjones/Desktop/_NEW RIPS/Alan Silvestri - 2015 - Back to the Future Part II (Expanded) [MP3 V0]/04 Hoverboard Chase (Alternate).mp3 Pre-gap length : 00:01:38

Track gain : -6.99 dB Peak : 0.944000 CRC32 hash (test run) : 5ACEAEFB CRC32 hash : 5ACEAEFB CRC32 hash (skip zero) : 039C52F3 AccurateRip v1 signature : 3AE79B4D AccurateRip v2 signature : 3EC975B4 ->Track not present in AccurateRip database. Statistics Read error : 0 Jitter error (maybe fixed) : 0 Retry sector count : 0 Damaged sector count : 0

Track 05 Filename : /Users/daveyjones/Desktop/_NEW RIPS/Alan Silvestri - 2015 - Back to the Future Part II (Expanded) [FLAC]/05 A Flying DeLorean (Alternate).flac /Users/daveyjones/Desktop/_NEW RIPS/Alan Silvestri - 2015 - Back to the Future Part II (Expanded) [320]/05 A Flying DeLorean (Alternate).mp3 /Users/daveyjones/Desktop/_NEW RIPS/Alan Silvestri - 2015 - Back to the Future Part II (Expanded) [MP3 V0]/05 A Flying DeLorean (Alternate).mp3 Pre-gap length : 00:01:38

Track gain : -2.41 dB Peak : 0.944000 CRC32 hash (test run) : AB658D91 CRC32 hash : AB658D91 CRC32 hash (skip zero) : 5018E814 AccurateRip v1 signature : 0E659E86 AccurateRip v2 signature : 73CFDE02 ->Track not present in AccurateRip database. Statistics Read error : 0 Jitter error (maybe fixed) : 0 Retry sector count : 0 Damaged sector count : 0

Track 06 Filename : /Users/daveyjones/Desktop/_NEW RIPS/Alan Silvestri - 2015 - Back to the Future Part II (Expanded) [FLAC]/06 Biff's World (Alternate).flac /Users/daveyjones/Desktop/_NEW RIPS/Alan Silvestri - 2015 - Back to the Future Part II (Expanded) [320]/06 Biff's World (Alternate).mp3 /Users/daveyjones/Desktop/_NEW RIPS/Alan Silvestri - 2015 - Back to the Future Part II (Expanded) [MP3 V0]/06 Biff's World (Alternate).mp3 Pre-gap length : 00:01:38

Track gain : -5.56 dB Peak : 0.944000 CRC32 hash (test run) : A3C9A40A CRC32 hash : A3C9A40A CRC32 hash (skip zero) : C8C52C3F AccurateRip v1 signature : 3F9F6868 AccurateRip v2 signature : 53C1C605 ->Track not present in AccurateRip database. Statistics Read error : 0 Jitter error (maybe fixed) : 0 Retry sector count : 0 Damaged sector count : 0

Track 07 Filename : /Users/daveyjones/Desktop/_NEW RIPS/Alan Silvestri - 2015 - Back to the Future Part II (Expanded) [FLAC]/07 If They Ever Did (Alternate Segment).flac /Users/daveyjones/Desktop/_NEW RIPS/Alan Silvestri - 2015 - Back to the Future Part II (Expanded) [320]/07 If They Ever Did (Alternate Segment).mp3 /Users/daveyjones/Desktop/_NEW RIPS/Alan Silvestri - 2015 - Back to the Future Part II (Expanded) [MP3 V0]/07 If They Ever Did (Alternate Segment).mp3 Pre-gap length : 00:01:38

Track gain : -2.24 dB Peak : 0.944000 CRC32 hash (test run) : 53079E09 CRC32 hash : 53079E09 CRC32 hash (skip zero) : DDBA12D2 AccurateRip v1 signature : 29E6F670 AccurateRip v2 signature : 3AE09072 ->Track not present in AccurateRip database. Statistics Read error : 0 Jitter error (maybe fixed) : 0 Retry sector count : 0 Damaged sector count : 0

Track 08 Filename : /Users/daveyjones/Desktop/_NEW RIPS/Alan Silvestri - 2015 - Back to the Future Part II (Expanded) [FLAC]/08 You'll Never Lose (Alternate).flac /Users/daveyjones/Desktop/_NEW RIPS/Alan Silvestri - 2015 - Back to the Future Part II (Expanded) [320]/08 You'll Never Lose (Alternate).mp3 /Users/daveyjones/Desktop/_NEW RIPS/Alan Silvestri - 2015 - Back to the Future Part II (Expanded) [MP3 V0]/08 You'll Never Lose (Alternate).mp3 Pre-gap length : 00:01:38

Track gain : 4.25 dB Peak : 0.943970 CRC32 hash (test run) : 8A4D9C83 CRC32 hash : 8A4D9C83 CRC32 hash (skip zero) : 133B78AE AccurateRip v1 signature : 98569314 AccurateRip v2 signature : 9AE25296 ->Track not present in AccurateRip database. Statistics Read error : 0 Jitter error (maybe fixed) : 0 Retry sector count : 0 Damaged sector count : 0

Track 09 Filename : /Users/daveyjones/Desktop/_NEW RIPS/Alan Silvestri - 2015 - Back to the Future Part II (Expanded) [FLAC]/09 Western Union (Alternate #1).flac /Users/daveyjones/Desktop/_NEW RIPS/Alan Silvestri - 2015 - Back to the Future Part II (Expanded) [320]/09 Western Union (Alternate #1).mp3 /Users/daveyjones/Desktop/_NEW RIPS/Alan Silvestri - 2015 - Back to the Future Part II (Expanded) [MP3 V0]/09 Western Union (Alternate #1).mp3 Pre-gap length : 00:01:38

Track gain : -7.33 dB Peak : 0.944000 CRC32 hash (test run) : 6089492D CRC32 hash : 6089492D CRC32 hash (skip zero) : 30EA681B AccurateRip v1 signature : 827E5631 AccurateRip v2 signature : 618687A9 ->Track not present in AccurateRip database. Statistics Read error : 0 Jitter error (maybe fixed) : 0 Retry sector count : 0 Damaged sector count : 0

Track 10 Filename : /Users/daveyjones/Desktop/_NEW RIPS/Alan Silvestri - 2015 - Back to the Future Part II (Expanded) [FLAC]/10 I'm Back (Alternate #1).flac /Users/daveyjones/Desktop/_NEW RIPS/Alan Silvestri - 2015 - Back to the Future Part II (Expanded) [320]/10 I'm Back (Alternate #1).mp3 /Users/daveyjones/Desktop/_NEW RIPS/Alan Silvestri - 2015 - Back to the Future Part II (Expanded) [MP3 V0]/10 I'm Back (Alternate #1).mp3 Pre-gap length : 00:01:38

Track gain : -5.50 dB Peak : 0.943970 CRC32 hash (test run) : 0DF8242F CRC32 hash : 0DF8242F CRC32 hash (skip zero) : CBFB00BF AccurateRip v1 signature : 8FC22E81 AccurateRip v2 signature : 36166C42 ->Track not present in AccurateRip database. Statistics Read error : 0 Jitter error (maybe fixed) : 0 Retry sector count : 0 Damaged sector count : 0

Track 11 Filename : /Users/daveyjones/Desktop/_NEW RIPS/Alan Silvestri - 2015 - Back to the Future Part II (Expanded) [FLAC]/11 Western Union (Alternate #2).flac /Users/daveyjones/Desktop/_NEW RIPS/Alan Silvestri - 2015 - Back to the Future Part II (Expanded) [320]/11 Western Union (Alternate #2).mp3 /Users/daveyjones/Desktop/_NEW RIPS/Alan Silvestri - 2015 - Back to the Future Part II (Expanded) [MP3 V0]/11 Western Union (Alternate #2).mp3 Pre-gap length : 00:01:38

Track gain : -7.46 dB Peak : 0.944000 CRC32 hash (test run) : 4072560A CRC32 hash : 4072560A CRC32 hash (skip zero) : 23F0A10A AccurateRip v1 signature : C20755A3 AccurateRip v2 signature : C294FD08 ->Track not present in AccurateRip database. Statistics Read error : 0 Jitter error (maybe fixed) : 0 Retry sector count : 0 Damaged sector count : 0

Track 12 Filename : /Users/daveyjones/Desktop/_NEW RIPS/Alan Silvestri - 2015 - Back to the Future Part II (Expanded) [FLAC]/12 I'm Back (Alternate #2).flac /Users/daveyjones/Desktop/_NEW RIPS/Alan Silvestri - 2015 - Back to the Future Part II (Expanded) [320]/12 I'm Back (Alternate #2).mp3 /Users/daveyjones/Desktop/_NEW RIPS/Alan Silvestri - 2015 - Back to the Future Part II (Expanded) [MP3 V0]/12 I'm Back (Alternate #2).mp3 Pre-gap length : 00:01:38

Track gain : -6.64 dB Peak : 0.943970 CRC32 hash (test run) : 90E9946C CRC32 hash : 90E9946C CRC32 hash (skip zero) : 2D27AE53 AccurateRip v1 signature : F99EA203 AccurateRip v2 signature : 980F9F6F ->Track not present in AccurateRip database. Statistics Read error : 0 Jitter error (maybe fixed) : 0 Retry sector count : 0 Damaged sector count : 0

Track 13 Filename : /Users/daveyjones/Desktop/_NEW RIPS/Alan Silvestri - 2015 - Back to the Future Part II (Expanded) [FLAC]/13 End Logo (Alternate).flac /Users/daveyjones/Desktop/_NEW RIPS/Alan Silvestri - 2015 - Back to the Future Part II (Expanded) [320]/13 End Logo (Alternate).mp3 /Users/daveyjones/Desktop/_NEW RIPS/Alan Silvestri - 2015 - Back to the Future Part II (Expanded) [MP3 V0]/13 End Logo (Alternate).mp3 Pre-gap length : 00:01:38

Track gain : -6.30 dB Peak : 0.944000 CRC32 hash (test run) : F94FCDEC CRC32 hash : F94FCDEC CRC32 hash (skip zero) : 7A996529 AccurateRip v1 signature : E0E03AA9 AccurateRip v2 signature : 03CBA5EB ->Track not present in AccurateRip database. Statistics Read error : 0 Jitter error (maybe fixed) : 0 Retry sector count : 0 Damaged sector count : 0

Track 14 Filename : /Users/daveyjones/Desktop/_NEW RIPS/Alan Silvestri - 2015 - Back to the Future Part II (Expanded) [FLAC]/14 The West (Alternate).flac /Users/daveyjones/Desktop/_NEW RIPS/Alan Silvestri - 2015 - Back to the Future Part II (Expanded) [320]/14 The West (Alternate).mp3 /Users/daveyjones/Desktop/_NEW RIPS/Alan Silvestri - 2015 - Back to the Future Part II (Expanded) [MP3 V0]/14 The West (Alternate).mp3 Pre-gap length : 00:01:19

Track gain : -8.67 dB Peak : 0.944000 CRC32 hash (test run) : 4ACCDDBE CRC32 hash : 4ACCDDBE CRC32 hash (skip zero) : 98E5DAC3 AccurateRip v1 signature : 843FF7D1 AccurateRip v2 signature : 4D2AFA8C ->Track not present in AccurateRip database. Statistics Read error : 0 Jitter error (maybe fixed) : 0 Retry sector count : 0 Damaged sector count : 0

Track 15 Filename : /Users/daveyjones/Desktop/_NEW RIPS/Alan Silvestri - 2015 - Back to the Future Part II (Expanded) [FLAC]/15 End Title (Alternate).flac /Users/daveyjones/Desktop/_NEW RIPS/Alan Silvestri - 2015 - Back to the Future Part II (Expanded) [320]/15 End Title (Alternate).mp3 /Users/daveyjones/Desktop/_NEW RIPS/Alan Silvestri - 2015 - Back to the Future Part II (Expanded) [MP3 V0]/15 End Title (Alternate).mp3 Pre-gap length : 00:01:38

Track gain : -7.59 dB Peak : 0.944000 CRC32 hash (test run) : 630EA9AA CRC32 hash : 630EA9AA CRC32 hash (skip zero) : 050D1327 AccurateRip v1 signature : 3CD05E6A AccurateRip v2 signature : 13C65958 ->Track not present in AccurateRip database. Statistics Read error : 0 Jitter error (maybe fixed) : 0 Retry sector count : 0 Damaged sector count : 0

No errors occurred

End of status report

-----BEGIN XLD SIGNATURE-----8KhDb.IqNCYWhKLp2eyBcxkZpx4Td0yhjEzMZb.qDVNzJKVSdjjErpRs9s8uvLDMxW7guWzLRUkGexNa.6MOYzDAOMQz3IKQOZXpR.S-----END XLD SIGNATURE-----
TITLE "Back to the Future Part II (Expanded)"PERFORMER "Alan Silvestri"CATALOG 0720258533623REM GENRE "Soundtrack"REM DATE "2015"REM DISCNUMBER 2REM TOTALDISCS 2REM DISCID EA08690FREM REPLAYGAIN_ALBUM_GAIN -6.30 dBREM REPLAYGAIN_ALBUM_PEAK 0.944000FILE "01 - Back to Back (Alternate).wav" WAVE TRACK 01 AUDIO TITLE "Back to Back (Alternate)" ISRC USQ4E1501761 REM REPLAYGAIN_TRACK_GAIN -3.09 dB REM REPLAYGAIN_TRACK_PEAK 0.943970 INDEX 01 00:00:00 TRACK 02 AUDIO TITLE "Main Title (Alternate)" ISRC USQ4E1501762 REM REPLAYGAIN_TRACK_GAIN -6.34 dB REM REPLAYGAIN_TRACK_PEAK 0.944000 INDEX 00 01:02:08FILE "02 - Main Title (Alternate).wav" WAVE INDEX 01 00:00:00 TRACK 03 AUDIO TITLE "The Future (Alternate)" ISRC USQ4E1501763 REM REPLAYGAIN_TRACK_GAIN -0.99 dB REM REPLAYGAIN_TRACK_PEAK 0.944000 INDEX 00 03:54:14FILE "03 - The Future (Alternate).wav" WAVE INDEX 01 00:00:00 TRACK 04 AUDIO TITLE "Hoverboard Chase (Alternate)" ISRC USQ4E1501764 REM REPLAYGAIN_TRACK_GAIN -6.99 dB REM REPLAYGAIN_TRACK_PEAK 0.944000 INDEX 00 05:23:58FILE "04 - Hoverboard Chase (Alternate).wav" WAVE INDEX 01 00:00:00 TRACK 05 AUDIO TITLE "A Flying DeLorean (Alternate)" ISRC USQ4E1501765 REM REPLAYGAIN_TRACK_GAIN -2.41 dB REM REPLAYGAIN_TRACK_PEAK 0.944000 INDEX 00 02:50:16FILE "05 - A Flying DeLorean (Alternate).wav" WAVE INDEX 01 00:00:00 TRACK 06 AUDIO TITLE "Biff's World (Alternate)" ISRC USQ4E1501766 REM REPLAYGAIN_TRACK_GAIN -5.56 dB REM REPLAYGAIN_TRACK_PEAK 0.944000 INDEX 00 04:32:44FILE "06 - Biff's World (Alternate).wav" WAVE INDEX 01 00:00:00 TRACK 07 AUDIO TITLE "If They Ever Did (Alternate Segment)" ISRC USQ4E1501767 REM REPLAYGAIN_TRACK_GAIN -2.24 dB REM REPLAYGAIN_TRACK_PEAK 0.944000 INDEX 00 01:35:14FILE "07 - If They Ever Did (Alternate Segment).wav" WAVE INDEX 01 00:00:00 TRACK 08 AUDIO TITLE "You'll Never Lose (Alternate)" ISRC USQ4E1501768 REM REPLAYGAIN_TRACK_GAIN 4.25 dB REM REPLAYGAIN_TRACK_PEAK 0.943970 INDEX 00 02:05:74FILE "08 - You'll Never Lose (Alternate).wav" WAVE INDEX 01 00:00:00 TRACK 09 AUDIO TITLE "Western Union (Alternate #1)" ISRC USQ4E1501769 REM REPLAYGAIN_TRACK_GAIN -7.33 dB REM REPLAYGAIN_TRACK_PEAK 0.944000 INDEX 00 02:52:44FILE "09 - Western Union (Alternate #1).wav" WAVE INDEX 01 00:00:00 TRACK 10 AUDIO TITLE "I'm Back (Alternate #1)" ISRC USQ4E1501770 REM REPLAYGAIN_TRACK_GAIN -5.50 dB REM REPLAYGAIN_TRACK_PEAK 0.943970 INDEX 00 02:04:62FILE "10 - I'm Back (Alternate #1).wav" WAVE INDEX 01 00:00:00 TRACK 11 AUDIO TITLE "Western Union (Alternate #2)" ISRC USQ4E1501771 REM REPLAYGAIN_TRACK_GAIN -7.46 dB REM REPLAYGAIN_TRACK_PEAK 0.944000 INDEX 00 00:34:01FILE "11 - Western Union (Alternate #2).wav" WAVE INDEX 01 00:00:00 TRACK 12 AUDIO TITLE "I'm Back (Alternate #2)" ISRC USQ4E1501772 REM REPLAYGAIN_TRACK_GAIN -6.64 dB REM REPLAYGAIN_TRACK_PEAK 0.943970 INDEX 00 01:59:45FILE "12 - I'm Back (Alternate #2).wav" WAVE INDEX 01 00:00:00 TRACK 13 AUDIO TITLE "End Logo (Alternate)" ISRC USQ4E1501773 REM REPLAYGAIN_TRACK_GAIN -6.30 dB REM REPLAYGAIN_TRACK_PEAK 0.944000 INDEX 00 00:24:31FILE "13 - End Logo (Alternate).wav" WAVE INDEX 01 00:00:00 TRACK 14 AUDIO TITLE "The West (Alternate)" ISRC USQ4E1501774 REM REPLAYGAIN_TRACK_GAIN -8.67 dB REM REPLAYGAIN_TRACK_PEAK 0.944000 INDEX 00 00:17:38FILE "14 - The West (Alternate).wav" WAVE INDEX 01 00:00:00 TRACK 15 AUDIO TITLE "End Title (Alternate)" ISRC USQ4E1501775 REM REPLAYGAIN_TRACK_GAIN -7.59 dB REM REPLAYGAIN_TRACK_PEAK 0.944000 INDEX 00 01:17:73FILE "15 - End Title (Alternate).wav" WAVE INDEX 01 00:00:00
[/spoiler]


Трекер:  [ 13-Ноя-2016 14:00 ]

  

Скачать .torrent

Размер .torrent файла 42 KB


Размер: 2.01 GB
Хэш (hash) релиза: 25e9d56362c386fa6658a48b59fad9bfb0bddf5a

Торренты, похожие на Назад в будущее Back to the Future скачать торрент

Форум Название Автор Размер S L Добавлен
Саундтреки к фильмам и мультфильмам (mp3) ·· (Score) Назад в будущее | Back To The Future (Alan Silvestri Soundtrack Collection) [1985-2015, MP3, 320 kbps] Galfimbul 12184077921.13 GB 0 0 1456141663

14:47

22-Фев-16

Саундтреки к фильмам и мультфильмам (mp3) ·· [Soundtrack / Unofficial] Назад в будущее | Back To The Future [1985-2011, MP3, 320 kbps] Galfimbul 106935528102 MB 0 0 1428525491

23:38

8-Апр-15

Саундтреки к фильмам и мультфильмам (lossless) ·· (Score) Назад в будущее / Back to the Future (Intrada 2CD Special Edition) (Alan Silvestri) - 2009, FLAC (tracks+.cue), lossless AqvaGen 522034599498 MB 0 0 1292268606

22:30

13-Дек-10

Саундтреки к фильмам и мультфильмам (mp3) ·· (Score) Назад в будущее / Back To The Future (Complete) (2CD) (by Alan Silvestri) - 2009 (1985), MP3, 320 kbps Galfimbul 213540104204 MB 0 0 1292265570

21:39

13-Дек-10

Саундтреки к фильмам и мультфильмам (mp3) ·· (Soundtrack) Назад в будущее / Back To The Future (Alan Silvestri & VA) - 1985, mp3, 320 kbps Galfimbul 9171572287 MB 0 0 1292265327

21:35

13-Дек-10

Саундтреки к фильмам и мультфильмам (lossless) ·· (Soundtrack) VA - Music From The Motion Picture Soundtrack "Back To The Future" / "Назад в будущее" - 1985, FLAC (tracks+.cue), lossless Galfimbul 212081307202 MB 0 0 1292268811

22:33

13-Дек-10

Саундтреки к фильмам и мультфильмам (lossless) ·· (Score) Alan Silvestri - Back To The Future Part III / Назад в будущее 3 - 1990, FLAC (image+.cue), lossless Galfimbul 256891959245 MB 0 0 1292269037

22:37

13-Дек-10

Саундтреки к фильмам и мультфильмам (mp3) ·· (Score) Назад в будущее 2 / Back To The Future Part II (expanded) (by Alan Silvestri) - 1989, MP3, 320 kbps AqvaGen 166407278159 MB 0 0 1292266464

21:54

13-Дек-10

Саундтреки к фильмам и мультфильмам (mp3) ·· (Score) Назад в будущее 3 / Back To The Future Part III (expanded) (by Alan Silvestri) - 1990, MP3, 320 kbps AqvaGen 177840154170 MB 0 0 1292266323

21:52

13-Дек-10

Саундтреки к фильмам и мультфильмам (mp3) ·· (Score) Back To The Future I, II, III / Назад в будущее I, II, III (Alan Silvestri) - 1985-1990, MP3, 320 kbps Galfimbul 371756540355 MB 0 0 1292265868

21:44

13-Дек-10

Саундтреки к фильмам и мультфильмам (mp3) ·· (Soundtrack) Назад в Будущее I,II,III / Back to the Future I, II, III - 1985-1990,MP3,VBR,192-320 Phoenix 209162624199 MB 0 0 1292265063

21:31

13-Дек-10

Еще никто не оставлял запись к записи скачать торрент Назад в будущее Back to the Future . Будь первым!

!Обратная связь