Скачать через торрент Кувыркашки Flip Flappers бесплатно Аниме Все серии на русском torrent

Если у вас наблюдаются проблемы со скриншотами, переходом по ссылками, скачиванием торрентов - проблемы в блокировщике рекламы AdBlock. #хорошегоДня!


Статистика раздачи
Размер:  2.09 GB   |    Зарегистрирован:  10 месяцев   |    .torrent скачан:  18 раз   |   
Раздают:  1  
   
Загрузка...
 
Автор Сообщение

Galfimbul

avatar Galfimbul


Кувыркашки / Flip Flappers
Страна: Япония
Год выпуска: 2016 г.
Тип: TV
Жанр: Фэнтези, комедия, махо-сёдзё
Продолжительность: 12 эп. по 25 мин
Русские субтитры:
Переводчик: Gerale
Редактор: Komugi-chan
QC: Tousaka Jun
Режиссер: Осияма Киётака

Студия:

Описание: Когда две девочки встречаются в измерении под названием "Pure Иллюзи", начинаются их приключения в разное время и по- разному . Многие вещи в Pure Иллюзии будут стоять на пути девочек в поисках таинственного кристалла называмого "осколок Мими" элемент , который , как говорят, предоставит любое желание. Тем не менее, когда девушки оказываются в опасности, осколок Мими светит, и они способны трансформировать.

<span class="post-font-sans1">Качество: HDTVRip | Равка: Leopard-Raws Формат: mp4 | Тип Видео: без хардсаба
Видео: х264, 8 bits, 1280x720, 2082 kbps, 23.976 fps, (16:9)
JP - AAC, 192 kbps, 48.0 KHz, 2 ch Язык Японский</span>
01. Pure Input
02. Pure Converter
03. Pure XLR
04. Pure Equalization
05. Pure Echo
Общее
Полное имя : D:\[Leopard-Raws]\[Leopard-Raws] Flip Flappers\[Leopard-Raws] Flip Flappers - 01 RAW (ATX 1280x720 x264 AAC).mp4
Формат : MPEG-4
Профиль формата : Base Media
Идентификатор кодека : isom
Размер файла : 391 Мбайт
Продолжительность : 24 м.
Режим общего битрейта : Переменный
Общий поток : 2277 Кбит/сек
Дата кодирования : UTC 2016-10-06 20:45:58
Дата пометки : UTC 2016-10-06 20:45:58

Видео
Идентификатор : 1
Формат : AVC
Формат/Информация : Advanced Video Codec
Профиль формата : High@L4.1
Параметр CABAC формата : Да
Параметр ReFrames формата : 4 кадра
Идентификатор кодека : avc1
Идентификатор кодека/Информация : Advanced Video Coding
Продолжительность : 24 м.
Битрейт : 2082 Кбит/сек
Максимальный битрейт : 15,4 Мбит/сек
Ширина : 1280 пикселей
Высота : 720 пикселей
Соотношение сторон : 16:9
Режим частоты кадров : Постоянный
Частота кадров : 23,976 кадра/сек
Цветовое пространство : YUV
Субдискретизация насыщенности : 4:2:0
Битовая глубина : 8 бит
Тип развёртки : Прогрессивная
Бит/(Пиксели*Кадры) : 0.094
Размер потока : 357 Мбайт (91%)
Заголовок : 264:fps=23.976@GPAC0.5.2-DEV-rev376-g5eeb74d-master
Библиотека кодирования : x264 core 129 r2245+729M 1a52e03
Настройки программы : cabac=1 / ref=4 / deblock=1:1:-1 / analyse=0x3:0x113 / me=umh / subme=9 / psy=1 / fade_compensate=0.00 / psy_rd=1.00:0.00 / mixed_ref=1 / me_range=24 / chroma_me=1 / trellis=2 / 8x8dct=1 / cqm=0 / deadzone=21,11 / fast_pskip=1 / chroma_qp_offset=-2 / threads=8 / lookahead_threads=1 / sliced_threads=0 / nr=0 / decimate=1 / interlaced=0 / bluray_compat=0 / constrained_intra=0 / fgo=0 / bframes=9 / b_pyramid=2 / b_adapt=2 / b_bias=0 / direct=1 / weightb=1 / open_gop=0 / weightp=2 / keyint=240 / keyint_min=24 / scenecut=40 / intra_refresh=0 / rc=crf / mbtree=0 / crf=18.5 / qcomp=0.72 / qpmin=0 / qpmax=69 / qpstep=4 / ip_ratio=1.40 / pb_ratio=1.30 / aq=1:0.85
Дата кодирования : UTC 2016-10-06 20:45:58
Дата пометки : UTC 2016-10-06 20:46:03
Основные цвета : BT.709
Характеристики трансфера : BT.709
Коэффициенты матрицы : BT.709

Аудио
Идентификатор : 2
Формат : AAC
Формат/Информация : Advanced Audio Codec
Профиль формата : LC
Идентификатор кодека : 40
Продолжительность : 24 м.
Вид битрейта : Переменный
Битрейт : 192 Кбит/сек
Максимальный битрейт : 233 Кбит/сек
Каналы : 2 канала
Расположение каналов : Front: L R
Частота : 48,0 КГц
Метод сжатия : С потерями
Размер потока : 32,8 Мбайт (8%)
Язык : Japanese
Дата кодирования : UTC 2016-10-06 18:04:22
Дата пометки : UTC 2016-10-06 20:46:03


Обновите торент файл, добавлены 5я серия

Трекер:  [ 11-Ноя-2016 22:30 ]

  

Скачать .torrent

Размер .torrent файла 12 KB


Размер: 2.09 GB
Хэш (hash) релиза: 37dc0a364351efe3ac6befdc43d55f3e43421057
Подписка на обновления:

Торренты, похожие на Кувыркашки Flip Flappers скачать торрент

Форум Название Автор Размер S L Добавлен
Аниме | HD Rips ·· Кувыркашки / Flip Flappers (Осияма Киётака) [TV] [13 из 13] [Без хардсаба] [JAP+SUB] [2016, фэнтези, комедия, махо-сёдзё BDRip] [1080p] Galfimbul 1902336415417.72 GB 0 0 1496965952

02:52

9-Июн-17

Аниме | HD Rips ·· Кувыркашки / Flip Flappers (Осияма Киётака) [TV] [13 из 13] [без хардсаба] [JAP+SUB] [2016, приключения, комедия, фэнтези, BDRemux] [1080p] Galfimbul 9778325477191.07 GB 0 0 1496965706

02:48

9-Июн-17

Аниме | HD Rips ·· Кувыркашки / Flip Flappers / Хлопушка-раскладушка (Осияма Киётака) [TV] [02 из 13] [Без хардсаба] [JAP+SUB] [2016, фэнтези, комедия, махо-сёдзё BDRip] [720p] Galfimbul 11550565021.08 GB 0 0 1491816481

12:28

10-Апр-17

Аниме | HD Rips ·· Кувыркашки / Flip Flappers (Осияма Киётака) [TV] [6 из 13] [Без хардсаба] [JAP+SUB] [2016, фэнтези, комедия, махо-сёдзё BDRip] [1080p] Galfimbul 72855945866.79 GB 0 0 1490864519

12:01

30-Мар-17

Аниме | HD Rips ·· Кувыркашки / Flip Flappers (Осияма Киётака) [TV] [1-6 из 13] [Без хардсаба] [JAP+SUB] [2016, приключения, комедия, фэнтези, BDRemux] [1080p] Galfimbul 4580863249542.66 GB 0 0 1489872646

00:30

19-Мар-17

Аниме | HD Rips ·· Кувыркашки / Flip Flappers (Осияма Киётака) [TV] [13 из 13] [Без хардсаба] [JAP+SUB] [2016, фэнтези, комедия, махо-сёдзё HDTVRip] [720p] Galfimbul 56131910855.23 GB 0 0 1483619536

15:32

5-Янв-17

Аниме | Rips ·· Кувыркашки / Flip Flappers [TV] [13 из 13] [Без хардсаба] [RUS(ext), JAP, SUB] [2016, Приключения, Комедия, HDTVRip] [720p] Galfimbul 60637675525.65 GB 0 0 1483393030

00:37

3-Янв-17

Аниме | HD Rips ·· Кувыркашки / Flip Flappers (Осияма Киётака) [TV] [11 из 13] [Без хардсаба] [JAP+SUB] [2016, фэнтези, комедия, махо-сёдзё HDTVRip] [720p] Galfimbul 47139626924.39 GB 0 0 1483206577

20:49

31-Дек-16

Аниме | Rips ·· Кувыркашки / Flip Flappers [TV] [13 из 13] [Без хардсаба] [RUS(ext), JAP] & [01-09 из 13] [SUB] [2016, Приключения, Комедия, HDTVRip] [720p] Galfimbul 60636029535.65 GB 0 0 1483160523

08:02

31-Дек-16

Аниме | Rips ·· Кувыркашки / Flip Flappers [TV] [01-11 из 13] [Без хардсаба] [RUS(ext), JAP] & [01-09 из 13] [SUB] [2016, Приключения, Комедия, HDTVRip] [720p] Galfimbul 50951374874.75 GB 0 0 1482946616

20:36

28-Дек-16

Аниме | Rips ·· Кувыркашки / Flip Flappers [TV] [01-10 из 13] [Без хардсаба] [RUS(ext), JAP] & [01-09 из 12] [SUB] [2016, Приключения, Комедия, HDTVRip] [720p] Galfimbul 46716064034.35 GB 0 0 1482424780

19:39

22-Дек-16

Аниме | HD Rips ·· Кувыркашки / Flip Flappers (Осияма Киётака) [TV] [9 из 12] [Без хардсаба] [JAP+SUB] [2016, фэнтези, комедия, махо-сёдзё HDTVRip] [720p] Galfimbul 39602512203.69 GB 0 0 1481720976

16:09

14-Дек-16

Аниме | HD Rips ·· Кувыркашки / Flip Flappers (Осияма Киётака) [TV] [8 из 12] [Без хардсаба] [JAP+SUB] [2016, фэнтези, комедия, махо-сёдзё HDTVRip] [720p] Galfimbul 35429713913.3 GB 0 0 1481583357

01:55

13-Дек-16

Аниме | Rips ·· Кувыркашки / Flip Flappers [TV] [01-06 из 13] [Без хардсаба] [RUS(ext), JAP, SUB] [2016, Приключения, Комедия, HDTVRip] [720p] Galfimbul 28771323522.68 GB 0 0 1480173543

18:19

26-Ноя-16

Аниме | Rips ·· Кувыркашки / Flip Flappers [TV] [01-05 из 13] [Без хардсаба] [RUS(ext), JAP, SUB] [2016, Приключения, Комедия, HDTVRip] [720p] Galfimbul 24138268802.25 GB 0 0 1479917046

19:04

23-Ноя-16

Аниме | HD Rips ·· Кувыркашки / Flip Flappers (Осияма Киётака) [TV] [6 из 12] [Без хардсаба] [JAP+SUB] [2016, фэнтези, комедия, махо-сёдзё HDTVRip] [720p] Galfimbul 26691740192.49 GB 0 0 1479469435

14:43

18-Ноя-16

Аниме | Rips ·· Кувыркашки / Flip Flappers [TV] [01-04 из 12] [Без хардсаба] [RUS(ext), JAP, SUB] [2016, Приключения, Комедия, HDTVRip] [720p] Galfimbul 19222909051.79 GB 0 0 1478272330

18:12

4-Ноя-16

Аниме | HD Rips ·· Кувыркашки / Flip Flappers (Осияма Киётака) [TV] [4 из 12] [Без хардсаба] [JAP+SUB] [2016, фэнтези, комедия, махо-сёдзё HDTVRip] [720p] Galfimbul 17836529411.66 GB 0 0 1477730165

11:36

29-Окт-16

Аниме | Rips ·· Кувыркашки / Flip Flappers [TV] [01-03 из 12] [Без хардсаба] [RUS(ext), JAP, SUB] [2016, Приключения, Комедия, HDTVRip] [720p] Galfimbul 14836439221.38 GB 0 0 1477573852

16:10

27-Окт-16

Еще никто не оставлял запись к записи скачать торрент Кувыркашки Flip Flappers . Будь первым!

!Обратная связь