Скачать через торрент WWW.Работа! WWW.Working!! бесплатно Аниме Все серии на русском torrent

Если у вас наблюдаются проблемы со скриншотами, переходом по ссылками, скачиванием торрентов - проблемы в блокировщике рекламы AdBlock. #хорошегоДня!


Статистика раздачи
Размер:  1.67 GB   |    Зарегистрирован:  10 месяцев   |    .torrent скачан:  17 раз   |   
Раздают:  1  
   
Загрузка...
 
Автор Сообщение

Galfimbul

avatar Galfimbul


WWW.Работа! / WWW.Working!!
Страна: Япония
Год выпуска: 2016 г.
Тип: TV
Жанр: Повседневность, комедия, сэйнэн
Продолжительность: 12 эп. по 25 мин
Русские субтитры: AOS
Перевод: RazGildyai
Режиссер: Камакура Юми

Студия:

Описание: Аниме-адаптация веб-издания манги Web-ban Working!!

Действие происходит в другом семейном ресторане Вагнария. Дайске Хигасида устраивается на работу из-за семейных финансовых проблем и обнаруживает, что никого из его новых коллег нельзя назвать "нормальным".

<span class="post-font-sans1">Качество: HDTVRip | Равка: Leopard-Raws Формат: mp4 | Тип Видео: без хардсаба
Видео: х264, 8 bits, 1280x720, 1336 kbps, 23.976 fps, (16:9)
JP - AAC, 192 kbps, 48.0 KHz, 2 ch Язык Японский</span>
01. Part-Time Jobs Can Change Lives
02. Life Isn`t That Easy
03. You`re the Only One I Can Ask
04. I Have a Feeling It`ll Go Well
05. I`ll Try Getting Revenge
06. Fate Survival
Общее
Полное имя : D:\[Leopard-Raws]\[Leopard-Raws] Www.Working!\[Leopard-Raws] Www.Working!! - 01 RAW (BS11 1280x720 x264 AAC).mp4
Формат : MPEG-4
Профиль формата : Base Media
Идентификатор кодека : isom
Размер файла : 263 Мбайт
Продолжительность : 23 м.
Режим общего битрейта : Переменный
Общий поток : 1532 Кбит/сек
Дата кодирования : UTC 2016-10-01 17:51:06
Дата пометки : UTC 2016-10-01 17:51:06

Видео
Идентификатор : 1
Формат : AVC
Формат/Информация : Advanced Video Codec
Профиль формата : High@L4.1
Параметр CABAC формата : Да
Параметр ReFrames формата : 4 кадра
Идентификатор кодека : avc1
Идентификатор кодека/Информация : Advanced Video Coding
Продолжительность : 23 м.
Битрейт : 1336 Кбит/сек
Максимальный битрейт : 14,9 Мбит/сек
Ширина : 1280 пикселей
Высота : 720 пикселей
Соотношение сторон : 16:9
Режим частоты кадров : Постоянный
Частота кадров : 23,976 кадра/сек
Цветовое пространство : YUV
Субдискретизация насыщенности : 4:2:0
Битовая глубина : 8 бит
Тип развёртки : Прогрессивная
Бит/(Пиксели*Кадры) : 0.060
Размер потока : 229 Мбайт (87%)
Заголовок : 264:fps=23.976@GPAC0.5.2-DEV-rev376-g5eeb74d-master
Библиотека кодирования : x264 core 129 r2245+729M 1a52e03
Настройки программы : cabac=1 / ref=4 / deblock=1:1:-1 / analyse=0x3:0x113 / me=umh / subme=9 / psy=1 / fade_compensate=0.00 / psy_rd=1.00:0.00 / mixed_ref=1 / me_range=24 / chroma_me=1 / trellis=2 / 8x8dct=1 / cqm=0 / deadzone=21,11 / fast_pskip=1 / chroma_qp_offset=-2 / threads=8 / lookahead_threads=1 / sliced_threads=0 / nr=0 / decimate=1 / interlaced=0 / bluray_compat=0 / constrained_intra=0 / fgo=0 / bframes=9 / b_pyramid=2 / b_adapt=2 / b_bias=0 / direct=1 / weightb=1 / open_gop=0 / weightp=2 / keyint=240 / keyint_min=24 / scenecut=40 / intra_refresh=0 / rc=crf / mbtree=0 / crf=18.0 / qcomp=0.72 / qpmin=0 / qpmax=69 / qpstep=4 / ip_ratio=1.40 / pb_ratio=1.30 / aq=1:0.85
Дата кодирования : UTC 2016-10-01 17:51:06
Дата пометки : UTC 2016-10-01 17:51:15
Основные цвета : BT.709
Характеристики трансфера : BT.709
Коэффициенты матрицы : BT.709

Аудио
Идентификатор : 2
Формат : AAC
Формат/Информация : Advanced Audio Codec
Профиль формата : LC
Идентификатор кодека : 40
Продолжительность : 23 м.
Вид битрейта : Переменный
Битрейт : 192 Кбит/сек
Максимальный битрейт : 239 Кбит/сек
Каналы : 2 канала
Расположение каналов : Front: L R
Частота : 48,0 КГц
Метод сжатия : С потерями
Размер потока : 33,0 Мбайт (13%)
Язык : Japanese
Дата кодирования : UTC 2016-10-01 15:18:44
Дата пометки : UTC 2016-10-01 17:51:15


Обновите торент файл, добавлена 6я серия

Трекер:  [ 11-Ноя-2016 22:00 ]

  

Скачать .torrent

Размер .torrent файла 18 KB


Размер: 1.67 GB
Хэш (hash) релиза: 95888ab693b05ff59c0e08fd6c9156bc0d4844d2
Подписка на обновления:

Торренты, похожие на WWW.Работа! WWW.Working!! скачать торрент

Форум Название Автор Размер S L Добавлен
Аниме | HD Rips ·· WWW.Работа! / WWW.Working!! (Камакура Юми) [TV] [13 из 13] [Без хардсаба] [RUS(ext) JAP+SUB] [2016, повседневность, комедия, сэйнэн, BDRip] [1080p] Galfimbul 1698685663515.82 GB 0 0 1498917713

17:01

1-Июл-17

Аниме | HD Rips ·· WWW.Работа! / WWW.Working!! (Камакура Юми) [TV] [13 из 13] [Без хардсаба] [JAP+SUB] [2016, повседневность, комедия, сэйнэн, HDTVRip] [720p] Galfimbul 39579946563.69 GB 0 0 1482797295

03:08

27-Дек-16

Аниме | HD Rips ·· WWW.Работа! / WWW.Working!! (Камакура Юми) [TV] [12 из 13] [Без хардсаба] [JAP+SUB] [2016, повседневность, комедия, сэйнэн, HDTVRip] [720p] Galfimbul 36719495543.42 GB 0 0 1482187074

01:37

20-Дек-16

Аниме | HD Rips ·· WWW.Работа! / WWW.Working!! (Камакура Юми) [TV] [10 из 12] [Без хардсаба] [JAP+SUB] [2016, повседневность, комедия, сэйнэн, HDTVRip] [720p] Galfimbul 30737899802.86 GB 0 0 1481155448

03:04

8-Дек-16

Аниме | HD Rips ·· WWW.Работа! / WWW.Working!! (Камакура Юми) [TV] [9 из 12] [Без хардсаба] [JAP+SUB] [2016, повседневность, комедия, сэйнэн, HDTVRip] [720p] Galfimbul 27187062822.53 GB 0 0 1480607684

18:54

1-Дек-16

Аниме | HD Rips ·· WWW.Работа! / WWW.Working!! (Камакура Юми) [TV] [8 из 12] [Без хардсаба] [JAP+SUB] [2016, повседневность, комедия, сэйнэн, HDTVRip] [720p] Galfimbul 24229783222.26 GB 0 0 1479847749

23:49

22-Ноя-16

Аниме | HD Rips ·· WWW.Работа! / WWW.Working!! (Камакура Юми) [TV] [7 из 12] [Без хардсаба] [JAP+SUB] [2016, повседневность, комедия, сэйнэн, HDTVRip] [720p] Galfimbul 21086727291.96 GB 0 0 1479159298

00:34

15-Ноя-16

Аниме | HD Rips ·· WWW.Работа! / WWW.Working!! (Камакура Юми) [TV] [5 из 12] [Без хардсаба] [JAP+SUB] [2016, повседневность, комедия, сэйнэн, HDTVRip] [720p] Galfimbul 14502339391.35 GB 0 0 1477953114

01:31

1-Ноя-16

Аниме | HD Rips ·· WWW.Работа! / WWW.Working!! (Камакура Юми) [TV] [4 из 12] [Без хардсаба] [JAP+SUB] [2016, повседневность, комедия, сэйнэн, HDTVRip] [720p] Galfimbul 11757109941.09 GB 0 0 1477259993

00:59

24-Окт-16

Аниме | HD Rips ·· WWW.Работа! / WWW.Working!! (Камакура Юми) [TV] [3 из 12] [Без хардсаба] [JAP+SUB] [2016, повседневность, комедия, сэйнэн, HDTVRip] [720p] Galfimbul 879935733839 MB 0 0 1477254253

23:24

23-Окт-16

Аниме | HD Rips ·· WWW.Работа! / WWW.Working!! (Камакура Юми) [TV] [4 из 13] [Без хардсаба] [JAP+SUB] [2016, повседневность, комедия, сэйнэн, WEBRip] [720p] Galfimbul 25203965212.35 GB 0 0 1477254053

23:20

23-Окт-16

Аниме | HD Rips ·· WWW.Работа! / WWW.Working!! (Камакура Юми) [TV] [3 из 12] [Без хардсаба] [JAP+SUB] [2016, повседневность, комедия, сэйнэн, WEBRip] [720p] Galfimbul 18890641501.76 GB 0 0 1476812153

20:35

18-Окт-16

Аниме | HD Rips ·· WWW.Работа! / WWW.Working!! (четвертый сезон) (Камакура Юми) [TV] [1 из 12] [Без хардсаба] [JAP+SUB] [2016 г., повседневность, комедия, сэйнэн, HDTVRip] [720p] Galfimbul 575721645549 MB 0 0 1476050473

01:01

10-Окт-16

Аниме | HD Rips ·· WWW.Работа! / WWW.Working!! (четвертый сезон) (Камакура Юми) [TV] [1 из 12] [Без хардсаба] [JAP+SUB] [2016 г., повседневность, комедия, сэйнэн, HDTVRip] [720p] Galfimbul 275928824263 MB 0 0 1475995202

09:40

9-Окт-16

Аниме | HD Rips ·· WWW.Работа!! (ТВ-1) / WWW.Working!! [TV] [03 из 13] [Без хардсаба] [JAP+SUB] [2016, комедия, повседневность, WEBRip] [1080p] Galfimbul 17063655401.59 GB 0 0 1477340724

23:25

24-Окт-16

Аниме | HD Rips ·· WWW.Работа!! (ТВ-1) / WWW.Working!! [TV] [02 из 13] [Без хардсаба] [JAP+SUB] [2016, комедия, повседневность, WEBRip] [1080p] Galfimbul 11376467731.06 GB 0 0 1476719808

18:56

17-Окт-16

Аниме | HD Rips ·· WWW.Работа!! (ТВ-1) / WWW.Working!! [TV] [01 из 13] [Без хардсаба] [JAP+SUB] [2016 г., комедия, повседневность, WEBRip] [1080p] Galfimbul 568647136542 MB 0 0 1476120589

20:29

10-Окт-16

Еще никто не оставлял запись к записи скачать торрент WWW.Работа! WWW.Working!! . Будь первым!

!Обратная связь