Скачать через торрент музыку Одиссея Lodyssee бесплатно без регистрации torrent

Если у вас наблюдаются проблемы со скриншотами, переходом по ссылками, скачиванием торрентов - проблемы в блокировщике рекламы AdBlock. #хорошегоДня!


Статистика раздачи
Размер:  352 MB   |    Зарегистрирован:  10 месяцев   |    .torrent скачан:  20 раз   |   
Раздают:  1  
   
Загрузка...
 
Автор Сообщение

Galfimbul

avatar Galfimbul


Одиссея / L'odyssée
ЖанрGenre: Score / Soundtrack
КомпозиторComposer: Alexandre Desplat
Год выпуска дискаCD release: 2016
Год выпуска фильмаMovie release: 2016
Производитель дискаCD manufacturer: France
Издатель (лейбл)Label: TF1 Musique
Номер по каталогуCatalog #: 5721017
АудиокодекCodec: FLAC (*.flac)
Тип рипаRip type: tracks+.cue
Битрейт аудиоBit rate: lossless
ПродолжительностьDuration: 01:04:25
ИсточникSource: собственный рип ● own rip - Release # FX-359
Наличие сканов в раздачeScans included: 600 dpi JPG
СсылкиLinks: Кинопоиск | IMDB | Wikipedia | SoundtrackCollector
MP3: <a href="viewtopic.php?t=5309964" class="postLink">(Score) Одиссея / L'odyssee (by Alexandre Desplat) - 2016, MP3 (tracks) 320 kbps</a>
Alexandre Desplat: <a href="tracker.php?f=786&nm=Alexandre+Desplat" class="postLink">lossless</a> | <a href="tracker.php?f=785&nm=Alexandre+Desplat" class="postLink">lossy</a>
01. L'Odyssée [0:04:42.66]
02. Exploration [0:02:53.23]
03. Autour du globe [0:03:30.69]
04. L'hydravion [0:02:53.33]
05. Respirer sous l'eau [0:02:00.65]
06. Deep Diving [0:03:56.30]
07. La grotte [0:02:00.50]
08. Massacre [0:02:40.27]
09. Préservation [0:02:11.21]
10. Balais des baleines [0:02:38.44]
11. Aventuriers père et fils [0:02:26.03]
12. Antarctica [0:05:17.36]
13. Terra Incognita [0:02:24.38]
14. Last Flight [0:04:58.12]
15. The Delta Rhythm Boys / Don't Knock It [0:02:36.07]
16. Otis Redding / Hard to Handle [0:02:19.72]
17. James Brown & The Famous Flames / That's Life (Live at the Apollo Theater / 1967) [0:04:09.26]
18. The Guess Who / No Sugar Tonight [0:04:52.56]
19. The Mamas & The Papas / California Dreamin' [0:02:40.31]
20. Tom Rosenthal / It's OK [0:03:12.20]
Exact Audio Copy V1.3 from 2. September 2016

EAC extraction logfile from 11. November 2016, 16:47

Alexandre Desplat / L'Odyssée

Used drive : PLEXTOR CD-R PX-230A Adapter: 1 ID: 0

Read mode : SecureUtilize accurate stream : YesDefeat audio cache : YesMake use of C2 pointers : No

Read offset correction : 738Overread into Lead-In and Lead-Out : NoFill up missing offset samples with silence : YesDelete leading and trailing silent blocks : NoNull samples used in CRC calculations : YesUsed interface : Native Win32 interface for Win NT & 2000Gap handling : Appended to previous track

Used output format : User Defined EncoderSelected bitrate : 1024 kBit/sQuality : HighAdd ID3 tag : NoCommand line compressor : C:\Program Files\Exact Audio Copy\Flac\flac.exeAdditional command line options : -6 -V -T "ARTIST=%artist%" -T "TITLE=%title%" -T "ALBUM=%albumtitle%" -T "DATE=%year%"-T "TRACKNUMBER=%tracknr%" -T "GENRE=%genre%" -T "COMMENT=%comment%" -T "ALBUMARTIST=%albuminterpret%" -T "COMPOSER=%composer%"-T "DISCNUMBER=%cdnumber%" -T "TOTALDISCS=%totalcds%" -T "TOTALTRACKS=%numtracks%" %source% -o %dest%

TOC of the extracted CD

Track | Start | Length | Start sector | End sector --------------------------------------------------------- 1 | 0:00.00 | 4:42.66 | 0 | 21215 2 | 4:42.66 | 2:53.23 | 21216 | 34213 3 | 7:36.14 | 3:30.69 | 34214 | 50032 4 | 11:07.08 | 2:53.33 | 50033 | 63040 5 | 14:00.41 | 2:00.65 | 63041 | 72105 6 | 16:01.31 | 3:56.30 | 72106 | 89835 7 | 19:57.61 | 2:00.50 | 89836 | 98885 8 | 21:58.36 | 2:40.27 | 98886 | 110912 9 | 24:38.63 | 2:11.21 | 110913 | 120758 10 | 26:50.09 | 2:38.44 | 120759 | 132652 11 | 29:28.53 | 2:26.03 | 132653 | 143605 12 | 31:54.56 | 5:17.36 | 143606 | 167416 13 | 37:12.17 | 2:24.38 | 167417 | 178254 14 | 39:36.55 | 4:58.12 | 178255 | 200616 15 | 44:34.67 | 2:36.07 | 200617 | 212323 16 | 47:10.74 | 2:19.72 | 212324 | 222820 17 | 49:30.71 | 4:09.26 | 222821 | 241521 18 | 53:40.22 | 4:52.56 | 241522 | 263477 19 | 58:33.03 | 2:40.31 | 263478 | 275508 20 | 61:13.34 | 3:12.20 | 275509 | 289928

Track 1

Filename C:\Music\01 - Alexandre Desplat - L'Odyssée.wav

Pre-gap length 0:00:02.00

Peak level 94.4 % Extraction speed 4.6 X Track quality 99.9 % Test CRC C7E3DA64 Copy CRC C7E3DA64 Track not present in AccurateRip database Copy OK

Track 2

Filename C:\Music\02 - Alexandre Desplat - Exploration.wav

Pre-gap length 0:00:02.00

Peak level 98.2 % Extraction speed 4.4 X Track quality 99.9 % Test CRC 5352C3F4 Copy CRC 5352C3F4 Track not present in AccurateRip database Copy OK

Track 3

Filename C:\Music\03 - Alexandre Desplat - Autour du globe.wav

Pre-gap length 0:00:02.00

Peak level 88.2 % Extraction speed 5.3 X Track quality 100.0 % Test CRC 3528B891 Copy CRC 3528B891 Track not present in AccurateRip database Copy OK

Track 4

Filename C:\Music\04 - Alexandre Desplat - L'hydravion.wav

Pre-gap length 0:00:02.00

Peak level 96.1 % Extraction speed 5.1 X Track quality 100.0 % Test CRC CCED72B6 Copy CRC CCED72B6 Track not present in AccurateRip database Copy OK

Track 5

Filename C:\Music\05 - Alexandre Desplat - Respirer sous l'eau.wav

Pre-gap length 0:00:01.74

Peak level 95.0 % Extraction speed 4.7 X Track quality 100.0 % Test CRC 64C5F20E Copy CRC 64C5F20E Track not present in AccurateRip database Copy OK

Track 6

Filename C:\Music\06 - Alexandre Desplat - Deep Diving.wav

Pre-gap length 0:00:02.00

Peak level 91.7 % Extraction speed 4.7 X Track quality 99.9 % Test CRC 2E3D84D1 Copy CRC 2E3D84D1 Track not present in AccurateRip database Copy OK

Track 7

Filename C:\Music\07 - Alexandre Desplat - La grotte.wav

Pre-gap length 0:00:02.00

Peak level 99.8 % Extraction speed 4.7 X Track quality 100.0 % Test CRC 22E8E9FE Copy CRC 22E8E9FE Track not present in AccurateRip database Copy OK

Track 8

Filename C:\Music\08 - Alexandre Desplat - Massacre.wav

Pre-gap length 0:00:02.00

Peak level 100.0 % Extraction speed 4.3 X Track quality 99.9 % Test CRC 05653C56 Copy CRC 05653C56 Track not present in AccurateRip database Copy OK

Track 9

Filename C:\Music\09 - Alexandre Desplat - Préservation.wav

Pre-gap length 0:00:02.00

Peak level 100.0 % Extraction speed 4.8 X Track quality 100.0 % Test CRC F4FB4618 Copy CRC F4FB4618 Track not present in AccurateRip database Copy OK

Track 10

Filename C:\Music\10 - Alexandre Desplat - Balais des baleines.wav

Pre-gap length 0:00:02.00

Peak level 83.7 % Extraction speed 5.0 X Track quality 100.0 % Test CRC FCECD352 Copy CRC FCECD352 Track not present in AccurateRip database Copy OK

Track 11

Filename C:\Music\11 - Alexandre Desplat - Aventuriers père et fils.wav

Pre-gap length 0:00:02.00

Peak level 92.8 % Extraction speed 4.9 X Track quality 100.0 % Test CRC 92BD50FE Copy CRC 92BD50FE Track not present in AccurateRip database Copy OK

Track 12

Filename C:\Music\12 - Alexandre Desplat - Antarctica.wav

Pre-gap length 0:00:02.00

Peak level 94.2 % Extraction speed 5.5 X Track quality 100.0 % Test CRC 82896CB7 Copy CRC 82896CB7 Track not present in AccurateRip database Copy OK

Track 13

Filename C:\Music\13 - Alexandre Desplat - Terra Incognita.wav

Pre-gap length 0:00:02.00

Peak level 94.1 % Extraction speed 4.9 X Track quality 100.0 % Test CRC E137128C Copy CRC E137128C Track not present in AccurateRip database Copy OK

Track 14

Filename C:\Music\14 - Alexandre Desplat - Last Flight.wav

Pre-gap length 0:00:02.00

Peak level 99.1 % Extraction speed 4.1 X Track quality 99.9 % Test CRC A538B863 Copy CRC A538B863 Track not present in AccurateRip database Copy OK

Track 15

Filename C:\Music\15 - The Delta Rhythm Boys - Don't Knock It.wav

Pre-gap length 0:00:02.00

Peak level 85.8 % Extraction speed 4.9 X Track quality 100.0 % Test CRC 6A85F203 Copy CRC 6A85F203 Track not present in AccurateRip database Copy OK

Track 16

Filename C:\Music\16 - Otis Redding - Hard to Handle.wav

Pre-gap length 0:00:02.00

Peak level 72.1 % Extraction speed 4.8 X Track quality 100.0 % Test CRC 7F9D7708 Copy CRC 7F9D7708 Track not present in AccurateRip database Copy OK

Track 17

Filename C:\Music\17 - James Brown & The Famous Flames - That's Life (Live at the Apollo Theater , 1967).wav

Pre-gap length 0:00:02.00

Peak level 100.0 % Extraction speed 4.7 X Track quality 99.9 % Test CRC 91805178 Copy CRC 91805178 Track not present in AccurateRip database Copy OK

Track 18

Filename C:\Music\18 - The Guess Who - No Sugar Tonight.wav

Pre-gap length 0:00:02.00

Peak level 98.7 % Extraction speed 5.4 X Track quality 100.0 % Test CRC 5DAAE8F2 Copy CRC 5DAAE8F2 Track not present in AccurateRip database Copy OK

Track 19

Filename C:\Music\19 - The Mamas & The Papas - California Dreamin'.wav

Pre-gap length 0:00:02.00

Peak level 94.3 % Extraction speed 4.9 X Track quality 100.0 % Test CRC 6FEC04F9 Copy CRC 6FEC04F9 Track not present in AccurateRip database Copy OK

Track 20

Filename C:\Music\20 - Tom Rosenthal - It's OK.wav

Pre-gap length 0:00:02.00

Peak level 92.1 % Extraction speed 4.2 X Track quality 99.9 % Test CRC 116A07CC Copy CRC 116A07CC Track not present in AccurateRip database Copy OK

None of the tracks are present in the AccurateRip database

No errors occurred

End of status report

---- CUETools DB Plugin V2.1.6

[CTDB TOCID: LBqdAiU7m47EmUBKgyr5rW4KXPA-] disk not present in databaseSubmit result: LBqdAiU7m47EmUBKgyr5rW4KXPA- has been uploaded

==== Log checksum E478C0719B3024659E473844A4F5611D069D3AF19ABF57114CAFC31E22229BAF ====
REM GENRE SoundtrackREM DATE 2016REM DISCID 2B0F1914REM COMMENT "ExactAudioCopy v1.3 - Release # FX-359"PERFORMER "Alexandre Desplat"TITLE "L'Odyssee"REM COMPOSER "Alexandre Desplat"FILE "01 - Alexandre Desplat - L'Odyssee.wav" WAVE TRACK 01 AUDIO TITLE "L'Odyssee" PERFORMER "Alexandre Desplat" REM COMPOSER "Alexandre Desplat" FLAGS DCP INDEX 01 00:00:00 TRACK 02 AUDIO TITLE "Exploration" PERFORMER "Alexandre Desplat" REM COMPOSER "Alexandre Desplat" FLAGS DCP INDEX 00 04:40:66FILE "02 - Alexandre Desplat - Exploration.wav" WAVE INDEX 01 00:00:00 TRACK 03 AUDIO TITLE "Autour du globe" PERFORMER "Alexandre Desplat" REM COMPOSER "Alexandre Desplat" FLAGS DCP INDEX 00 02:51:23FILE "03 - Alexandre Desplat - Autour du globe.wav" WAVE INDEX 01 00:00:00 TRACK 04 AUDIO TITLE "L'hydravion" PERFORMER "Alexandre Desplat" REM COMPOSER "Alexandre Desplat" FLAGS DCP INDEX 00 03:28:69FILE "04 - Alexandre Desplat - L'hydravion.wav" WAVE INDEX 01 00:00:00 TRACK 05 AUDIO TITLE "Respirer sous l'eau" PERFORMER "Alexandre Desplat" REM COMPOSER "Alexandre Desplat" FLAGS DCP INDEX 00 02:51:34FILE "05 - Alexandre Desplat - Respirer sous l'eau.wav" WAVE INDEX 01 00:00:00 TRACK 06 AUDIO TITLE "Deep Diving" PERFORMER "Alexandre Desplat" REM COMPOSER "Alexandre Desplat" FLAGS DCP INDEX 00 01:58:65FILE "06 - Alexandre Desplat - Deep Diving.wav" WAVE INDEX 01 00:00:00 TRACK 07 AUDIO TITLE "La grotte" PERFORMER "Alexandre Desplat" REM COMPOSER "Alexandre Desplat" FLAGS DCP INDEX 00 03:54:30FILE "07 - Alexandre Desplat - La grotte.wav" WAVE INDEX 01 00:00:00 TRACK 08 AUDIO TITLE "Massacre" PERFORMER "Alexandre Desplat" REM COMPOSER "Alexandre Desplat" FLAGS DCP INDEX 00 01:58:50FILE "08 - Alexandre Desplat - Massacre.wav" WAVE INDEX 01 00:00:00 TRACK 09 AUDIO TITLE "Preservation" PERFORMER "Alexandre Desplat" REM COMPOSER "Alexandre Desplat" FLAGS DCP INDEX 00 02:38:27FILE "09 - Alexandre Desplat - Preservation.wav" WAVE INDEX 01 00:00:00 TRACK 10 AUDIO TITLE "Balais des baleines" PERFORMER "Alexandre Desplat" REM COMPOSER "Alexandre Desplat" FLAGS DCP INDEX 00 02:09:21FILE "10 - Alexandre Desplat - Balais des baleines.wav" WAVE INDEX 01 00:00:00 TRACK 11 AUDIO TITLE "Aventuriers pere et fils" PERFORMER "Alexandre Desplat" REM COMPOSER "Alexandre Desplat" FLAGS DCP INDEX 00 02:36:44FILE "11 - Alexandre Desplat - Aventuriers pere et fils.wav" WAVE INDEX 01 00:00:00 TRACK 12 AUDIO TITLE "Antarctica" PERFORMER "Alexandre Desplat" REM COMPOSER "Alexandre Desplat" FLAGS DCP INDEX 00 02:24:03FILE "12 - Alexandre Desplat - Antarctica.wav" WAVE INDEX 01 00:00:00 TRACK 13 AUDIO TITLE "Terra Incognita" PERFORMER "Alexandre Desplat" REM COMPOSER "Alexandre Desplat" FLAGS DCP INDEX 00 05:15:36FILE "13 - Alexandre Desplat - Terra Incognita.wav" WAVE INDEX 01 00:00:00 TRACK 14 AUDIO TITLE "Last Flight" PERFORMER "Alexandre Desplat" REM COMPOSER "Alexandre Desplat" FLAGS DCP INDEX 00 02:22:38FILE "14 - Alexandre Desplat - Last Flight.wav" WAVE INDEX 01 00:00:00 TRACK 15 AUDIO TITLE "Don't Knock It" PERFORMER "The Delta Rhythm Boys" FLAGS DCP INDEX 00 04:56:12FILE "15 - The Delta Rhythm Boys - Don't Knock It.wav" WAVE INDEX 01 00:00:00 TRACK 16 AUDIO TITLE "Hard to Handle" PERFORMER "Otis Redding" FLAGS DCP INDEX 00 02:34:07FILE "16 - Otis Redding - Hard to Handle.wav" WAVE INDEX 01 00:00:00 TRACK 17 AUDIO TITLE "That's Life (Live at the Apollo Theater / 1967)" PERFORMER "James Brown & The Famous Flames" FLAGS DCP INDEX 00 02:17:72FILE "17 - James Brown & The Famous Flames - That's Life (Live at the Apollo Theater , 1967).wav" WAVE INDEX 01 00:00:00 TRACK 18 AUDIO TITLE "No Sugar Tonight" PERFORMER "The Guess Who" FLAGS DCP INDEX 00 04:07:26FILE "18 - The Guess Who - No Sugar Tonight.wav" WAVE INDEX 01 00:00:00 TRACK 19 AUDIO TITLE "California Dreamin'" PERFORMER "The Mamas & The Papas" FLAGS DCP INDEX 00 04:50:56FILE "19 - The Mamas & The Papas - California Dreamin'.wav" WAVE INDEX 01 00:00:00 TRACK 20 AUDIO TITLE "It's OK" PERFORMER "Tom Rosenthal" FLAGS DCP INDEX 00 02:38:31FILE "20 - Tom Rosenthal - It's OK.wav" WAVE INDEX 01 00:00:00


Трекер:  [ 11-Ноя-2016 21:00 ]

  

Скачать .torrent

Размер .torrent файла 16 KB


Размер: 352 MB
Хэш (hash) релиза: 4e386781300f6d4498f31602c7c814c5c773f606

Торренты, похожие на Одиссея Lodyssee скачать торрент

Форум Название Автор Размер S L Добавлен
Саундтреки к фильмам и мультфильмам (mp3) ·· (Score) Одиссея / L'odyssee (by Alexandre Desplat) - 2016, MP3 (tracks) 320 kbps Galfimbul 192210262183 MB 0 0 1478892363

22:26

11-Ноя-16

Еще никто не оставлял запись к записи скачать торрент Одиссея Lodyssee . Будь первым!

!Обратная связь