Скачать через торрент Исполнительный комитет признаний в любви Zutto Mae Kara Suki Deshita.: Kokuhaku Jikkou Iinkai бесплатно Аниме Все серии на русском torrent

Если у вас наблюдаются проблемы со скриншотами, переходом по ссылками, скачиванием торрентов - проблемы в блокировщике рекламы AdBlock. #хорошегоДня!


Статистика раздачи
Размер:  1.4 GB   |    Зарегистрирован:  1 год 1 месяц   |    .torrent скачан:  26 раз   |   
Раздают:  1  
   
Загрузка...
 
Автор Сообщение

Galfimbul

avatar Galfimbul



<span class="post-font-cursive1">Страна: Япония
Год выпуска: 2016 г.
Жанр: школа, романтика, повседневность
Продолжительность: 64 мин.</span>
<span class="post-font-cursive1">Перевод:</span>
<ol class="post-ul">
<span class="post-font-cursive1"> субтитры от Timecraft (полные/надписи)
перевод: Алекс Миф, оформление: Сурокунэ, редакция: Endil</span>
</ol>
<span class="post-font-cursive1">Озвучка:</span>
<ol class="post-ul">
<span class="post-font-cursive1"> двухголосая от KingMaster & Milirina (Anything-Group)</span>
</ol>
<span class="post-font-cursive1">Режиссер: Тэцуя Янагисава
Студия: Qualia Animation
Описание: Фильм - адаптация песенного вокалоид-проекта Kokuhaku Jikko Iinkai ~Renai Series~. Нацки Эномото вдруг признается в любви Ю Сэтогути. Но смутившись, забирает свои слова назад и говорит, что это была лишь репетиция перед настоящим признанием.
Первая часть проекта Kokuhaku Jikkou Iinkai: Renai Series, вдохновленного Vocaloid-песнями.</span>
<span class="post-font-cursive1">Ссылки: AniDB || World Art || MAL
Качество: BDRip
Автор рипа: Beatrice-Raws
Тип релиза: без хардсаба
Формат видео: mkv
Видео: x264 (10bit), 1280x720, ~2700kbps, 23.976fps
Аудио (int) rus : Vorbis, 256kbps, 48000Hz, 2ch
Аудио (int) jap : Vorbis, 256kbps, 48000Hz, 2ch</span>
<span class="post-font-cursive1">От раздач <a href="viewtopic.php?t=5299272" class="postLink">DeadNews</a>, <a href="viewtopic.php?t=5302152" class="postLink">DeadLine-Studio</a>, <a href="viewtopic.php?t=5307117" class="postLink">pcab1829</a></span>
<ol class="post-ul">
<span class="post-font-cursive1">Альтернативная озвучка</span>
<span class="post-font-cursive1">Лучше качество видео</span>
Beatrice-Raws | Ohys-Raws | Horrible-Subs
</ol>
GeneralUnique ID : 240361870393884002596824134812930965627 (0xB4D4032A8D746AA8B44C2C4C01D8807B)Complete name : F:\RELEASES\Voice\[ARRU] Zutto Mae Kara Suki Deshita. Kokuhaku Jikkou Iinkai Movie (BDRip 720p x264 Vorbis) [Anything-Group].mkvFormat : MatroskaFormat version : Version 2File size : 1.40 GiBDuration : 1 h 3 minOverall bit rate mode : VariableOverall bit rate : 3 139 kb/sEncoded date : UTC 2016-11-06 21:33:16Writing application : mkvmerge v4.0.0 ('The Stars were mine') сборка от Jun 6 2010 16:18:42Writing library : libebml v1.0.0 + libmatroska v1.0.0Attachments : calibri.ttf / Century Gothic (Bold).TTF / corbel.ttf / corbelb.ttf / NICHTLUSTIG 22 (Regular).ttf / SansRoundedC (Regular).otf / Shadow (Regular).ttf / v_LetterOMatic! (Regular).ttf / arialbd.ttf

VideoID : 1Format : AVCFormat/Info : Advanced Video CodecFormat profile : High 10@L5Format settings, CABAC : YesFormat settings, ReFrames : 6 framesCodec ID : V_MPEG4/ISO/AVCDuration : 1 h 3 minBit rate : 2 564 kb/sWidth : 1 280 pixelsHeight : 720 pixelsDisplay aspect ratio : 16:9Frame rate mode : ConstantFrame rate : 23.976 (24000/1001) FPSColor space : YUVChroma subsampling : 4:2:0Bit depth : 10 bitsScan type : ProgressiveBits/(Pixel*Frame) : 0.116Stream size : 1.14 GiB (82%)Title : Zutto Mae kara Suki Deshita. Kokuhaku Jikkou IinkaiWriting library : x264 core 148 (DJATOM's build)Encoding settings : cabac=1 / ref=6 / deblock=1:1:-1 / analyse=0x3:0x113 / me=umh / subme=10 / psy=1 / fade_compensate=0.00 / psy_rd=1.00:0.00 / mixed_ref=1 / me_range=32 / chroma_me=1 / trellis=2 / 8x8dct=1 / cqm=0 / deadzone=21,11 / fast_pskip=1 / chroma_qp_offset=-2 / threads=22 / lookahead_threads=5 / sliced_threads=0 / nr=0 / decimate=1 / interlaced=0 / bluray_compat=0 / constrained_intra=0 / bframes=11 / b_pyramid=2 / b_adapt=2 / b_bias=0 / direct=1 / weightb=1 / open_gop=0 / weightp=2 / keyint=240 / keyint_min=23 / scenecut=40 / intra_refresh=0 / rc=crf / mbtree=0 / crf=14.0000 / qcomp=0.72 / qpmin=0 / qpmax=81 / qpstep=4 / ip_ratio=1.40 / pb_ratio=1.30 / aq=1:0.85Language : JapaneseDefault : YesForced : NoColor range : LimitedColor primaries : BT.709Transfer characteristics : BT.709Matrix coefficients : BT.709

Audio #1ID : 2Format : VorbisFormat settings, Floor : 1Codec ID : A_VORBISDuration : 1 h 3 minBit rate mode : VariableBit rate : 256 kb/sMinimum bit rate : 192 kb/sMaximum bit rate : 320 kb/sChannel(s) : 2 channelsSampling rate : 48.0 kHzCompression mode : LossyStream size : 117 MiB (8%)Title : KingMaster & MilirinaWriting library : libVorbis 1.2 (UTC 2007-06-22)Language : RussianDefault : YesForced : No

Audio #2ID : 3Format : VorbisFormat settings, Floor : 1Codec ID : A_VORBISDuration : 1 h 3 minBit rate mode : VariableBit rate : 256 kb/sChannel(s) : 2 channelsSampling rate : 48.0 kHzCompression mode : LossyStream size : 117 MiB (8%)Title : OriginalWriting library : libVorbis (??] (20150105 (??])Language : JapaneseDefault : NoForced : No

Text #1ID : 4Format : ASSCodec ID : S_TEXT/ASSCodec ID/Info : Advanced Sub Station AlphaCompression mode : LosslessTitle : Timecraft (Full)Language : RussianDefault : NoForced : No

Text #2ID : 5Format : ASSCodec ID : S_TEXT/ASSCodec ID/Info : Advanced Sub Station AlphaCompression mode : LosslessTitle : TimecraftLanguage : RussianDefault : YesForced : No

Menu00:00:00.000 : :OP00:01:59.619 : :Part A00:05:58.232 : :Part B00:11:30.481 : :Part C00:18:42.871 : :Part D00:26:05.772 : :Part E00:32:58.977 : :Part F00:36:48.706 : :Part G00:44:34.254 : :Part H00:50:57.971 : :Part I00:56:49.739 : :ED01:01:58.715 : :Part J



Трекер:  [ 07-Ноя-2016 00:00 ]

  

Скачать .torrent

Размер .torrent файла 14 KB


Размер: 1.4 GB
Хэш (hash) релиза: 253644895988afad0a95584466c923e2694782cf
Подписка на обновления:

Торренты, похожие на Исполнительный комитет признаний в любви Zutto Mae Kara Suki Deshita.: Kokuhaku Jikkou Iinkai скачать торрент

Форум Название Автор Размер S L Добавлен
Аниме | HD Rips ·· Исполнительный комитет признаний в любви / Zutto Mae Kara Suki Deshita.: Kokuhaku Jikkou Iinkai [Special] [2 из 2] [Без хардсаба] [RUS(int), JAP, SUB] [2016, романтика, школа, повседневность, BDRip] [720p] Galfimbul 286129433273 MB 0 0 1490718151

19:22

28-Мар-17

Аниме | Rips ·· Исполнительный комитет признаний в любви / Zutto Mae kara Suki Deshita. Kokuhaku Jikkou Iinkai [Movie] [Без хардсаба] [RUS(int), JAP+SUB] [2016, романтика, школа, BDRip] [HWP] Galfimbul 770987853735 MB 0 0 1479353149

06:25

17-Ноя-16

Аниме | HD Rips ·· Исполнительный комитет признаний в любви / Zutto Mae kara Suki Deshita. Kokuhaku Jikkou Iinkai (Янагисава Тэцуя) [Movie] [Без хардсаба] [RUS(ext) JAP+SUB] [2016, повседневность, романтика, школа BDRip] [1080p] Galfimbul 60475794535.63 GB 0 0 1478597813

12:36

8-Ноя-16

Аниме | HD Rips ·· Исполнительный комитет признаний в любви / Zutto Mae Kara Suki Deshita.: Kokuhaku Jikkou Iinkai [Movie] [Без хардсаба] [RUS(int), JAP, SUB] [2016, романтика, школа, повседневность, WEBRip] [720p] Galfimbul 1002856920956 MB 0 0 1478457132

21:32

6-Ноя-16

Аниме | HD Rips ·· Исполнительный комитет признаний в любви / Zutto Mae kara Suki Deshita. Kokuhaku Jikkou Iinkai [Movie] [1 из 1] [Без хардсаба] [RUS(ext), JAP, SUB] [2016, Повседневность, Романтика, Школа, BDRip] [720p] Galfimbul 1021345190974 MB 0 0 1478352495

16:28

5-Ноя-16

Аниме | HD Rips ·· Исполнительный комитет признаний в любви / Zutto Mae kara Suki Deshita. Kokuhaku Jikkou Iinkai [Movie] [1 из 1] [Без хардсаба] [RUS(int), JAP+SUB] [2016, повседневность, романтика, школа, WEBRip] [720p] Galfimbul 990783954945 MB 0 0 1477424241

22:37

25-Окт-16

Аниме | HD Rips ·· Исполнительный комитет признаний в любви / Zutto Mae kara Suki Deshita. Kokuhaku Jikkou Iinkai [Movie] [Без хардсаба] [JAP+SUB] [2016, повседневность, романтика , WEBRip] [1080p] Galfimbul 15292199241.42 GB 0 0 1476911232

00:07

20-Окт-16

Аниме | HD Rips ·· Исполнительный комитет признаний в любви / Zutto Mae kara Suki Deshita. Kokuhaku Jikkou Iinkai [Movie] [1 из 1] [Без хардсаба] [JAP, SUB] [2016 г., Повседневность, Романтика, Школа, WEBRip] [720p] Galfimbul 908056878866 MB 0 0 1475983480

06:24

9-Окт-16

Еще никто не оставлял запись к записи скачать торрент Исполнительный комитет признаний в любви Zutto Mae Kara Suki Deshita.: Kokuhaku Jikkou Iinkai . Будь первым!

!Обратная связь