Скачать через торрент музыку Патрик Patrick бесплатно без регистрации torrent

Если у вас наблюдаются проблемы со скриншотами, переходом по ссылками, скачиванием торрентов - проблемы в блокировщике рекламы AdBlock. #хорошегоДня!


Статистика раздачи
Размер:  324 MB   |    Зарегистрирован:  11 месяцев   |    .torrent скачан:  12 раз   |   
Раздают:  1  
   
Загрузка...
 
Автор Сообщение

Galfimbul

avatar Galfimbul


Патрик / Patrick

Жанр: Score
Композитор: Pino Donaggio
Год выпуска диска: 2014
Год выпуска фильма: 2013
Производитель диска: Spain
Издатель (лейбл): Quartet Records
Номер по каталогу: QR150

Аудиокодек: FLAC (*.flac)
Тип рипа: image+.cue
Битрейт аудио: lossless
Продолжительность: 62:21
Источник: собственный рип
Наличие сканов в содержимом раздачи: да (600 dpi)
01. Deadly Needle [03:48.74]
02. Car Scene [01:56.47]
03. First Day [04:04.70]
04. Kathy Meets Patrick [02:22.29]
05. The Lift [04:00.68]
06. Patrick Spits Museum [03:17.43]
07. Kathy Enters [02:39.26]
08. Cassidy Dies [02:56.38]
09. Patrick Computer [02:40.05]
10. Telepathy Beach [02:20.31]
11. Telekinesis [04:54.44]
12. Cassidy Visits Kathy [02:40.63]
13. Waveform Crazy [01:54.43]
14. Lighthouse [03:50.05]
15. Kathy’s Imagination [03:59.48]
16. Nurse Williams Dies [04:14.16]
17. You Decide [04:01.30]
18. Kathy Back To Work [02:17.49]
19. Dream Or Reality? [04:20.01]
Exact Audio Copy V1.0 beta 3 from 29. August 2011

EAC extraction logfile from 30. May 2014, 17:44

Pino Donaggio / Patrick

Used drive : TSSTcorpCDDVDW SH-S202H Adapter: 0 ID: 0

Read mode : SecureUtilize accurate stream : YesDefeat audio cache : YesMake use of C2 pointers : No

Read offset correction : 6Overread into Lead-In and Lead-Out : NoFill up missing offset samples with silence : YesDelete leading and trailing silent blocks : NoNull samples used in CRC calculations : YesUsed interface : Native Win32 interface for Win NT & 2000

Used output format : Internal WAV RoutinesSample format : 44.100 Hz; 16 Bit; Stereo

TOC of the extracted CD

Track | Start | Length | Start sector | End sector --------------------------------------------------------- 1 | 0:00.00 | 3:48.74 | 0 | 17173 2 | 3:48.74 | 1:56.47 | 17174 | 25920 3 | 5:45.46 | 4:04.70 | 25921 | 44290 4 | 9:50.41 | 2:22.29 | 44291 | 54969 5 | 12:12.70 | 4:00.68 | 54970 | 73037 6 | 16:13.63 | 3:17.43 | 73038 | 87855 7 | 19:31.31 | 2:39.26 | 87856 | 99806 8 | 22:10.57 | 2:56.38 | 99807 | 113044 9 | 25:07.20 | 2:40.05 | 113045 | 125049 10 | 27:47.25 | 2:20.31 | 125050 | 135580 11 | 30:07.56 | 4:54.44 | 135581 | 157674 12 | 35:02.25 | 2:40.63 | 157675 | 169737 13 | 37:43.13 | 1:54.43 | 169738 | 178330 14 | 39:37.56 | 3:50.05 | 178331 | 195585 15 | 43:27.61 | 3:59.48 | 195586 | 213558 16 | 47:27.34 | 4:14.16 | 213559 | 232624 17 | 51:41.50 | 4:01.30 | 232625 | 250729 18 | 55:43.05 | 2:17.49 | 250730 | 261053 19 | 58:00.54 | 4:20.01 | 261054 | 280554

Range status and errors

Selected range

Filename D:\Pino Donaggio - Patrick\Pino Donaggio - Patrick.wav

Peak level 98.8 % Extraction speed 7.5 X Range quality 100.0 % Test CRC EE3B4536 Copy CRC EE3B4536 Copy OK

No errors occurred

AccurateRip summary

Track 1 not present in databaseTrack 2 not present in databaseTrack 3 not present in databaseTrack 4 not present in databaseTrack 5 not present in databaseTrack 6 not present in databaseTrack 7 not present in databaseTrack 8 not present in databaseTrack 9 not present in databaseTrack 10 not present in databaseTrack 11 not present in databaseTrack 12 not present in databaseTrack 13 not present in databaseTrack 14 not present in databaseTrack 15 not present in databaseTrack 16 not present in databaseTrack 17 not present in databaseTrack 18 not present in databaseTrack 19 not present in database

None of the tracks are present in the AccurateRip database

End of status report

==== Log checksum E5D93563D180D2C1CD049E6615B7580E910CEE8F8133F6CF0D01F2368E63D7BF ====
Вниманию почтенной публики предлагается музыка к ремейку культового фильма Патрик от не менее культового Пино Донаджо!
Да, сам фильм получился так себе. Но музыка... Музыка!!! Музыка Донаджо с легкостью сглаживает все неровности и недостатки.
Особенно, если слушать ее отдельно!



Трекер:  [ 31-Окт-2016 19:30 ]

  

Скачать .torrent

Размер .torrent файла 13 KB


Размер: 324 MB
Хэш (hash) релиза: 39e8973ec0a24a7c75b1f883e54f300cd8462a9e

Торренты, похожие на Патрик Patrick скачать торрент

Форум Название Автор Размер S L Добавлен
Саундтреки к фильмам и мультфильмам (mp3) ·· (Score) Патрик / Patrick (by Pino Donaggio) - 2014 (2013), MP3, 320 kbps Galfimbul 149953204143 MB 0 0 1477936114

20:48

31-Окт-16

Саундтреки ·· (Score) Патрик / Patrick (by Goblin) - 2001 (1978), FLAC (tracks+.cue), lossless Centner1 275626178263 MB 0 0 1340861700

08:35

28-Июн-12

Электронная музыка (mp3) ·· (House) Patrick Cash (Patrick Ca$h, Патрик Кэш) - Alarm - 2012, MP3, 320 kbps Galfimbul 117042228112 MB 0 0 1387529130

11:45

20-Дек-13

Еще никто не оставлял запись к записи скачать торрент Патрик Patrick . Будь первым!

!Обратная связь