Скачать через торрент музыку Салемские вампиры Salems Lot бесплатно без регистрации torrent

Если у вас наблюдаются проблемы со скриншотами, переходом по ссылками, скачиванием торрентов - проблемы в блокировщике рекламы AdBlock. #хорошегоДня!


Статистика раздачи
Размер:  517 MB   |    Зарегистрирован:  10 месяцев   |    .torrent скачан:  22 раза   |   
Раздают:  1  
   
Загрузка...
 
Автор Сообщение

Galfimbul

avatar Galfimbul


Салемские вампиры / Salem's Lot

Жанр: Score
Композитор: Harry Sukman
Год выпуска диска: 2013
Год выпуска фильма: 1979
Производитель диска: USA
Издатель (лейбл): Intrada
Номер по каталогу: ISC 256

Аудиокодек: FLAC (*.flac)
Тип рипа: image+.cue
Битрейт аудио: lossless
Продолжительность: 99:51 (45:43 + 54:08)
Источник: собственный рип
Наличие сканов в содержимом раздачи: да (600 dpi)

Треклист
01. Teaser [01:05.02]
02. The Church [00:28.73]
03. Holy Water (Main Title #1) [02:20.37]
04. Straker [01:35.70]
05. Straker's Place [01:49.36]
06. Susan [00:50.46]
07. The House #1 [01:08.00]
08. The House #2 [01:05.69]
09. The Cemetery [00:33.01]
10. He Writes Good [00:20.73]
11. Lovely Susan [01:13.73]
12. Straker Is Troubled [01:22.38]
13. Straker Is Nervous [00:25.32]
14. The Day Is Here [00:48.04]
15. Tell Me It's Not True (Source #1) [00:49.01]
16. Dead Dog [00:51.70]
17. It's Cold In Here [00:21.37]
18. The Thing [00:42.38]
19. Mark's Room [00:38.01]
20. Nothing Is Forever (Source #2) [01:29.45]
21. Source #3 [04:05.35]
22. It's Still Moving [00:33.71]
23. It's Freezing [00:47.41]
24. The Monster Appears [00:26.01]
25. Bumper / Somebody's Up There [01:24.39]
26. Old Faithful [01:07.03]
27. So Long Kid [01:59.31]
28. Hold It, Larry [01:25.36]
29. Goodbye Crockett [00:16.37]
30. Ralph Is Floating [02:26.72]
31. Faithful [00:45.70]
32. So Long, Danny! [02:52.03]
33. Confident And Evil [01:10.38]
34. Opening Soon [00:27.01]
35. Ben Ponders [00:25.00]
36. Let Us Pray [00:27.34]
37. Now, Danny's Mother [01:59.39]
38. Mike Dives In #1 [01:34.03]
39. Fangs Sink In [00:31.07]
40. End Credits #1 [00:56.41]
Exact Audio Copy V1.0 beta 3 from 29. August 2011

EAC extraction logfile from 26. November 2013, 19:28

Harry Sukman / Salem's Lot (Disc 1)

Used drive : TSSTcorpCDDVDW SH-S202H Adapter: 0 ID: 0

Read mode : SecureUtilize accurate stream : YesDefeat audio cache : YesMake use of C2 pointers : No

Read offset correction : 6Overread into Lead-In and Lead-Out : NoFill up missing offset samples with silence : YesDelete leading and trailing silent blocks : NoNull samples used in CRC calculations : YesUsed interface : Native Win32 interface for Win NT & 2000

Used output format : Internal WAV RoutinesSample format : 44.100 Hz; 16 Bit; Stereo

TOC of the extracted CD

Track | Start | Length | Start sector | End sector --------------------------------------------------------- 1 | 0:00.00 | 1:05.02 | 0 | 4876 2 | 1:05.02 | 0:28.73 | 4877 | 7049 3 | 1:34.00 | 2:20.37 | 7050 | 17586 4 | 3:54.37 | 1:35.70 | 17587 | 24781 5 | 5:30.32 | 1:49.36 | 24782 | 32992 6 | 7:19.68 | 0:50.46 | 32993 | 36788 7 | 8:10.39 | 1:08.00 | 36789 | 41888 8 | 9:18.39 | 1:05.69 | 41889 | 46832 9 | 10:24.33 | 0:33.01 | 46833 | 49308 10 | 10:57.34 | 0:20.73 | 49309 | 50881 11 | 11:18.32 | 1:13.73 | 50882 | 56429 12 | 12:32.30 | 1:22.38 | 56430 | 62617 13 | 13:54.68 | 0:25.32 | 62618 | 64524 14 | 14:20.25 | 0:48.04 | 64525 | 68128 15 | 15:08.29 | 0:49.01 | 68129 | 71804 16 | 15:57.30 | 0:51.70 | 71805 | 75699 17 | 16:49.25 | 0:21.37 | 75700 | 77311 18 | 17:10.62 | 0:42.38 | 77312 | 80499 19 | 17:53.25 | 0:38.01 | 80500 | 83350 20 | 18:31.26 | 1:29.45 | 83351 | 90070 21 | 20:00.71 | 4:05.35 | 90071 | 108480 22 | 24:06.31 | 0:33.71 | 108481 | 111026 23 | 24:40.27 | 0:47.41 | 111027 | 114592 24 | 25:27.68 | 0:26.01 | 114593 | 116543 25 | 25:53.69 | 1:24.39 | 116544 | 122882 26 | 27:18.33 | 1:07.03 | 122883 | 127910 27 | 28:25.36 | 1:59.31 | 127911 | 136866 28 | 30:24.67 | 1:25.36 | 136867 | 143277 29 | 31:50.28 | 0:16.37 | 143278 | 144514 30 | 32:06.65 | 2:26.72 | 144515 | 155536 31 | 34:33.62 | 0:45.70 | 155537 | 158981 32 | 35:19.57 | 2:52.03 | 158982 | 171884 33 | 38:11.60 | 1:10.38 | 171885 | 177172 34 | 39:22.23 | 0:27.01 | 177173 | 179198 35 | 39:49.24 | 0:25.00 | 179199 | 181073 36 | 40:14.24 | 0:27.34 | 181074 | 183132 37 | 40:41.58 | 1:59.39 | 183133 | 192096 38 | 42:41.22 | 1:34.03 | 192097 | 199149 39 | 44:15.25 | 0:31.07 | 199150 | 201481 40 | 44:46.32 | 0:56.41 | 201482 | 205722

Range status and errors

Selected range

Filename D:\Harry Sukman - Salem's Lot\Harry Sukman - Salem's Lot (Disc 1).wav

Peak level 100.0 % Extraction speed 7.2 X Range quality 99.9 % Test CRC 8FBF58EE Copy CRC 8FBF58EE Copy OK

No errors occurred

AccurateRip summary

Track 1 not present in databaseTrack 2 not present in databaseTrack 3 not present in databaseTrack 4 not present in databaseTrack 5 not present in databaseTrack 6 not present in databaseTrack 7 not present in databaseTrack 8 not present in databaseTrack 9 not present in databaseTrack 10 not present in databaseTrack 11 not present in databaseTrack 12 not present in databaseTrack 13 not present in databaseTrack 14 not present in databaseTrack 15 not present in databaseTrack 16 not present in databaseTrack 17 not present in databaseTrack 18 not present in databaseTrack 19 not present in databaseTrack 20 not present in databaseTrack 21 not present in databaseTrack 22 not present in databaseTrack 23 not present in databaseTrack 24 not present in databaseTrack 25 not present in databaseTrack 26 not present in databaseTrack 27 not present in databaseTrack 28 not present in databaseTrack 29 not present in databaseTrack 30 not present in databaseTrack 31 not present in databaseTrack 32 not present in databaseTrack 33 not present in databaseTrack 34 not present in databaseTrack 35 not present in databaseTrack 36 not present in databaseTrack 37 not present in databaseTrack 38 not present in databaseTrack 39 not present in databaseTrack 40 not present in database

None of the tracks are present in the AccurateRip database

End of status report

==== Log checksum 32F8AF3A17432A40C180D9635A6B984A6887E92495501C6E9DD7D888624AF58E ====
01. Main Title #2 [01:41.70]
02. Back In Mark's Room [00:44.42]
03. Now It's Mark's Turn [03:22.72]
04. Mark Fondles Cross [00:25.72]
05. Mike And Jason [00:24.08]
06. Mike's Getting The Message [01:18.28]
07. Appointment With Destiny [00:43.38]
08. Eva Knows [00:06.26]
09. L'Inverno (The Four Seasons, No. 4) [01:45.49]
(A. Vivaldi, arr. by Harry Sukman)
10. I Want A Crucifix [00:33.38]
11. That's All For Max [00:48.01]
12. And Now Jason [01:42.33]
13. Mr. Barlow [00:26.05]
14. He's Gonna Do It [00:28.73]
15. It's Mr. Barlow Again [00:30.73]
16. Face The Master [00:18.08]
17. Bumper / Poor Mrs. Glick [02:07.00]
18. Good Girl [00:25.71]
19. Leave Town [00:46.69]
20. A Funny Dream / Uncertain Swan [01:09.03]
21. Susan Is Curious [03:11.03]
22. Susan Stalks Mark [02:27.72]
23. Stuffed Cats [00:48.71]
24. It's Susan's Turn [01:32.00]
25. Have You Seen Susan? [02:06.38]
26. Evil Presence [00:57.02]
27. Bill Beware [01:03.71]
28. And Now Straker [01:44.74]
29. Spained Ankle / He's Here [00:42.72]
30. Mike Dives In #2 [01:33.43]
31. Stake For Mr. Barlow [02:42.74]
32. Goodbye House [00:58.39]
33. Two Years Later [00:34.70]
34. Found Us Again [00:52.74]
35. Poor Susan [01:18.71]
36. Conclusion (With Tympani Overdub) [01:17.12]
37. End Credits [01:00.26]

Bonus Tracks
38. Holy Water (Main Title #1 Alternate) [01:46.07]
39. The Church (With Chimes) [00:28.74]
40. Conclusion (Without Overdub) [01:19.33]
41. Conclusion (With Tympani & Horn Overdub) [01:20.37]
42. Main Title (Feature Version) [02:12.35]
43. Vampires! (Feature Version) [00:33.32]
44. End Credits (Feature Version) [01:41.55]
Exact Audio Copy V1.0 beta 3 from 29. August 2011

EAC extraction logfile from 26. November 2013, 19:49

Harry Sukman / Salem's Lot (Disc 2)

Used drive : TSSTcorpCDDVDW SH-S202H Adapter: 0 ID: 0

Read mode : SecureUtilize accurate stream : YesDefeat audio cache : YesMake use of C2 pointers : No

Read offset correction : 6Overread into Lead-In and Lead-Out : NoFill up missing offset samples with silence : YesDelete leading and trailing silent blocks : NoNull samples used in CRC calculations : YesUsed interface : Native Win32 interface for Win NT & 2000

Used output format : Internal WAV RoutinesSample format : 44.100 Hz; 16 Bit; Stereo

TOC of the extracted CD

Track | Start | Length | Start sector | End sector --------------------------------------------------------- 1 | 0:00.00 | 1:41.70 | 0 | 7644 2 | 1:41.70 | 0:44.42 | 7645 | 10986 3 | 2:26.37 | 3:22.72 | 10987 | 26208 4 | 5:49.34 | 0:25.72 | 26209 | 28155 5 | 6:15.31 | 0:24.08 | 28156 | 29963 6 | 6:39.39 | 1:18.28 | 29964 | 35841 7 | 7:57.67 | 0:43.38 | 35842 | 39104 8 | 8:41.30 | 0:06.26 | 39105 | 39580 9 | 8:47.56 | 1:45.49 | 39581 | 47504 10 | 10:33.30 | 0:33.38 | 47505 | 50017 11 | 11:06.68 | 0:48.01 | 50018 | 53618 12 | 11:54.69 | 1:42.33 | 53619 | 61301 13 | 13:37.27 | 0:26.05 | 61302 | 63256 14 | 14:03.32 | 0:28.73 | 63257 | 65429 15 | 14:32.30 | 0:30.73 | 65430 | 67752 16 | 15:03.28 | 0:18.08 | 67753 | 69110 17 | 15:21.36 | 2:07.00 | 69111 | 78635 18 | 17:28.36 | 0:25.71 | 78636 | 80581 19 | 17:54.32 | 0:46.69 | 80582 | 84100 20 | 18:41.26 | 1:09.03 | 84101 | 89278 21 | 19:50.29 | 3:11.03 | 89279 | 103606 22 | 23:01.32 | 2:27.72 | 103607 | 114703 23 | 25:29.29 | 0:48.71 | 114704 | 118374 24 | 26:18.25 | 1:32.00 | 118375 | 125274 25 | 27:50.25 | 2:06.38 | 125275 | 134762 26 | 29:56.63 | 0:57.02 | 134763 | 139039 27 | 30:53.65 | 1:03.71 | 139040 | 143835 28 | 31:57.61 | 1:44.74 | 143836 | 151709 29 | 33:42.60 | 0:42.72 | 151710 | 154931 30 | 34:25.57 | 1:33.43 | 154932 | 161949 31 | 35:59.25 | 2:42.74 | 161950 | 174173 32 | 38:42.24 | 0:58.39 | 174174 | 178562 33 | 39:40.63 | 0:34.70 | 178563 | 181182 34 | 40:15.58 | 0:52.74 | 181183 | 185156 35 | 41:08.57 | 1:18.71 | 185157 | 191077 36 | 42:27.53 | 1:17.12 | 191078 | 196864 37 | 43:44.65 | 1:00.26 | 196865 | 201390 38 | 44:45.16 | 1:46.07 | 201391 | 209347 39 | 46:31.23 | 0:28.74 | 209348 | 211521 40 | 47:00.22 | 1:19.33 | 211522 | 217479 41 | 48:19.55 | 1:20.37 | 217480 | 223516 42 | 49:40.17 | 2:12.35 | 223517 | 233451 43 | 51:52.52 | 0:33.32 | 233452 | 235958 44 | 52:26.09 | 1:41.55 | 235959 | 243588

Range status and errors

Selected range

Filename D:\Harry Sukman - Salem's Lot\Harry Sukman - Salem's Lot (Disc 2).wav

Peak level 100.0 % Extraction speed 7.6 X Range quality 100.0 % Test CRC EBDA1959 Copy CRC EBDA1959 Copy OK

No errors occurred

AccurateRip summary

Track 1 not present in databaseTrack 2 not present in databaseTrack 3 not present in databaseTrack 4 not present in databaseTrack 5 not present in databaseTrack 6 not present in databaseTrack 7 not present in databaseTrack 8 not present in databaseTrack 9 not present in databaseTrack 10 not present in databaseTrack 11 not present in databaseTrack 12 not present in databaseTrack 13 not present in databaseTrack 14 not present in databaseTrack 15 not present in databaseTrack 16 not present in databaseTrack 17 not present in databaseTrack 18 not present in databaseTrack 19 not present in databaseTrack 20 not present in databaseTrack 21 not present in databaseTrack 22 not present in databaseTrack 23 not present in databaseTrack 24 not present in databaseTrack 25 not present in databaseTrack 26 not present in databaseTrack 27 not present in databaseTrack 28 not present in databaseTrack 29 not present in databaseTrack 30 not present in databaseTrack 31 not present in databaseTrack 32 not present in databaseTrack 33 not present in databaseTrack 34 not present in databaseTrack 35 not present in databaseTrack 36 not present in databaseTrack 37 not present in databaseTrack 38 not present in databaseTrack 39 not present in databaseTrack 40 not present in databaseTrack 41 not present in databaseTrack 42 not present in databaseTrack 43 not present in databaseTrack 44 not present in database

None of the tracks are present in the AccurateRip database

End of status report

==== Log checksum 780CD173708CFAF70F0F5C10C783D4E166684C7780723CFFA9F968A6D8339BC7 ====
В 1979 году выходит тв-экранизация Салемских вампиров Стивена Кинга. Уже тогда народ заговорил о замечательном саундтреке, который отлично дополнил картину. Но, как это обычно бывает, ничего не было выпущено (это ведь, повторюсь, был тв-продукт, а не кинофильм). Неудивительно, что вскоре начали появляться разные бутлег-версии в не очень хорошем моно-звучании.
И вот, спустя более чем 30 лет Интрада радует нас не просто изданием саундтрека, а таким, о котором можно только мечтать! На 2-х дисках - вся музыка, как она была написана и записана (каждый диск представляет собой одну часть, точно также был выпущен саундтрек к тв-сериям Оно). Но самое замечательное, что все записи сохранились в сочном и великолепном стерео-звучании!!!
В бонусной секции, помимо альтернативных версий некоторых треков, представлены три фрагмента, которые были специально написаны и записаны композитором для новой редакции фильма.
Итак, Вы готовы к острым ощущениям от завораживающей и жуткой музыки? Тогда Маэстро Гарри Сакман приглашает Вас в городок Салем. Только будьте осторожны - число жителей неуклонно снижается, и неизвестно, кто будет следующим?..



Трекер:  [ 31-Окт-2016 18:00 ]

  

Скачать .torrent

Размер .torrent файла 12 KB


Размер: 517 MB
Хэш (hash) релиза: 5bfb00dc8c718dc52506656e4ac077fd4aa78d38

Торренты, похожие на Салемские вампиры Salems Lot скачать торрент

Форум Название Автор Размер S L Добавлен
Саундтреки к фильмам и мультфильмам (mp3) ·· (Score) Салемские вампиры / Salem's Lot (by Harry Sukman) - 2013 (1979), MP3, 320 kbps Galfimbul 239926349229 MB 0 0 1477930457

19:14

31-Окт-16

Саундтреки к фильмам и мультфильмам (mp3) ·· (Score) Салемские вампиры / Salem's Lot (by Harry Sukman) - 2013 (1979), MP3, 320 kbps Galfimbul 264592450252 MB 0 0 1382194660

17:57

19-Окт-13

Еще никто не оставлял запись к записи скачать торрент Салемские вампиры Salems Lot . Будь первым!

!Обратная связь