Скачать через торрент Танец мечей: Цветочный круг Touken Ranbu: Hanamaru бесплатно Аниме Все серии на русском torrent

Если у вас наблюдаются проблемы со скриншотами, переходом по ссылками, скачиванием торрентов - проблемы в блокировщике рекламы AdBlock. #хорошегоДня!


Статистика раздачи
Размер:  1010 MB   |    Зарегистрирован:  1 год 1 месяц   |    .torrent скачан:  8 раз   |   
Раздают:  1  
   
Загрузка...
 
Автор Сообщение

Galfimbul

avatar Galfimbul


Танец мечей: Цветочный круг / Touken Ranbu: Hanamaru
Страна: Япония
Год выпуска: 2016 г.
Тип: TV
Жанр: Приключения, фэнтези
Продолжительность: 12 эп. по 25 мин
Русские субтитры: shojosei
Переводчик/Тайм-код/Оформление: Kasandra
Редактор: sys3x
Режиссер: Наоя Такаси

Студия:

Описание: Человечество с древних времен задается вопросом, возможно ли изменить ход истории и как сложилась бы их жизнь, если бы в ответственный момент они приняли другое решение. В начале двадцать третьего столетия нашей эры у людей появилась возможность проверить свои гипотезы на практике. В 2205 году путешествия во времени из красивой идеи превратились в реальность, и это предоставило людям новые возможности.

Среди людей, интересующихся историей, выделилось движение ревизионистов. Теперь так называют не просто историков, пытающихся изучать историю под новым углом, но тех, кто собственными действиями направляет ход событий в угодное им русло. Иными словами, ревизионисты — это путешественники во времени, которые своими действиями меняют историю, чтобы мир, в котором они живут, соответствовал их желаниям. Только вот путешествия во времени — дело тонкое и ненадежное. Предсказать, как отзовутся в истории те или иные изменения, почти никогда нельзя, да и разбираться с последствиями способен не каждый.
<span class="post-font-sans1">Качество: HDTVRip | Равка: Leopard-Raws Формат: mp4 | Тип Видео: без хардсаба
Видео: х264, 8 bits, 1280x720, 1777 kbps, 23.976 fps, (16:9)
JP - AAC, 192 kbps, 48.0 KHz, 2 ch Язык Японский</span>
01.January
02. February
03. March
04. April
Общее
Полное имя : D:\[Leopard-Raws]\[Leopard-Raws] Touken Ranbu - Hanamaru\[Leopard-Raws] Touken Ranbu - Hanamaru - 01 RAW (BS11 1280x720 x264 AAC).mp4
Формат : MPEG-4
Профиль формата : Base Media
Идентификатор кодека : isom
Размер файла : 338 Мбайт
Продолжительность : 23 м.
Режим общего битрейта : Переменный
Общий поток : 1972 Кбит/сек
Дата кодирования : UTC 2016-10-02 20:19:07
Дата пометки : UTC 2016-10-02 20:19:07

Видео
Идентификатор : 1
Формат : AVC
Формат/Информация : Advanced Video Codec
Профиль формата : High@L4.1
Параметр CABAC формата : Да
Параметр ReFrames формата : 4 кадра
Идентификатор кодека : avc1
Идентификатор кодека/Информация : Advanced Video Coding
Продолжительность : 23 м.
Битрейт : 1777 Кбит/сек
Максимальный битрейт : 15,7 Мбит/сек
Ширина : 1280 пикселей
Высота : 720 пикселей
Соотношение сторон : 16:9
Режим частоты кадров : Постоянный
Частота кадров : 23,976 кадра/сек
Цветовое пространство : YUV
Субдискретизация насыщенности : 4:2:0
Битовая глубина : 8 бит
Тип развёртки : Прогрессивная
Бит/(Пиксели*Кадры) : 0.080
Размер потока : 305 Мбайт (90%)
Заголовок : 264:fps=23.976@GPAC0.5.2-DEV-rev376-g5eeb74d-master
Библиотека кодирования : x264 core 129 r2245+729M 1a52e03
Настройки программы : cabac=1 / ref=4 / deblock=1:1:-1 / analyse=0x3:0x113 / me=umh / subme=9 / psy=1 / fade_compensate=0.00 / psy_rd=1.00:0.00 / mixed_ref=1 / me_range=24 / chroma_me=1 / trellis=2 / 8x8dct=1 / cqm=0 / deadzone=21,11 / fast_pskip=1 / chroma_qp_offset=-2 / threads=8 / lookahead_threads=1 / sliced_threads=0 / nr=0 / decimate=1 / interlaced=0 / bluray_compat=0 / constrained_intra=0 / fgo=0 / bframes=9 / b_pyramid=2 / b_adapt=2 / b_bias=0 / direct=1 / weightb=1 / open_gop=0 / weightp=2 / keyint=240 / keyint_min=24 / scenecut=40 / intra_refresh=0 / rc=crf / mbtree=0 / crf=17.5 / qcomp=0.72 / qpmin=0 / qpmax=69 / qpstep=4 / ip_ratio=1.40 / pb_ratio=1.30 / aq=1:0.85
Дата кодирования : UTC 2016-10-02 20:19:07
Дата пометки : UTC 2016-10-02 20:19:16
Основные цвета : BT.709
Характеристики трансфера : BT.709
Коэффициенты матрицы : BT.709

Аудио
Идентификатор : 2
Формат : AAC
Формат/Информация : Advanced Audio Codec
Профиль формата : LC
Идентификатор кодека : 40
Продолжительность : 23 м.
Вид битрейта : Переменный
Битрейт : 192 Кбит/сек
Максимальный битрейт : 254 Кбит/сек
Каналы : 2 канала
Расположение каналов : Front: L R
Частота : 48,0 КГц
Метод сжатия : С потерями
Размер потока : 32,8 Мбайт (10%)
Язык : Japanese
Дата кодирования : UTC 2016-10-02 16:22:08
Дата пометки : UTC 2016-10-02 20:19:16


Обновите торент файл, добавлена 3я серия

Трекер:  [ 23-Окт-2016 21:30 ]

  

Скачать .torrent

Размер .torrent файла 21 KB


Размер: 1010 MB
Хэш (hash) релиза: 28c07c9dfc918e36d40d9a9af602b9e773ef0fff
Подписка на обновления:

Торренты, похожие на Танец мечей: Цветочный круг Touken Ranbu: Hanamaru скачать торрент

Форум Название Автор Размер S L Добавлен
Аниме | Rips ·· Танец мечей: Цветочный круг / Touken Ranbu: Hanamaru [TV] [12 из 12] [Без хардсаба] [RUS(ext), JAP, SUB] [2016, Приключения, Фэнтези, HDTVRip] [720p] Galfimbul 48394597064.51 GB 0 0 1483717240

18:40

6-Янв-17

Аниме | HD Rips ·· Танец мечей: Цветочный круг / Touken Ranbu: Hanamaru (Наоя Такаси) [TV] [12 из 12] [Без хардсаба] [JAP+SUB] [2016, приключения, фэнтези, HDTVRip] [720p] Galfimbul 42123924183.92 GB 0 0 1483619540

15:32

5-Янв-17

Аниме | HD Rips ·· Танец мечей: Цветочный круг / Touken Ranbu: Hanamaru (Наоя Такаси) [TV] [11 из 12] [Без хардсаба] [JAP+SUB] [2016, приключения, фэнтези, HDTVRip] [720p] Galfimbul 39006947113.63 GB 0 0 1482673057

16:37

25-Дек-16

Аниме | Rips ·· Танец мечей: Цветочный круг / Touken Ranbu: Hanamaru [TV] [12 из 12] [Без хардсаба] [RUS(ext), JAP, SUB] [2016, Приключения, Фэнтези, HDTVRip] [720p] Galfimbul 48374061794.51 GB 0 0 1482286759

05:19

21-Дек-16

Аниме | Rips ·· Танец мечей: Цветочный круг / Touken Ranbu: Hanamaru [TV] [01-11 из 12] [Без хардсаба] [RUS(ext), JAP, SUB] [2016, Приключения, Фэнтези, HDTVRip] [720p] Galfimbul 44911520784.18 GB 0 0 1481681830

05:17

14-Дек-16

Аниме | HD Rips ·· Танец мечей: Цветочный круг / Touken Ranbu: Hanamaru (Наоя Такаси) [TV] [9 из 12] [Без хардсаба] [JAP+SUB] [2016, приключения, фэнтези, HDTVRip] [720p] Galfimbul 32234046533 GB 0 0 1481197096

14:38

8-Дек-16

Аниме | Rips ·· Танец мечей: Цветочный круг / Touken Ranbu: Hanamaru [TV] [01-09 из 12] [Без хардсаба] [RUS(ext), JAP, SUB] [2016, Приключения, Фэнтези, HDTVRip] [720p] Galfimbul 37445541783.49 GB 0 0 1480625771

23:56

1-Дек-16

Аниме | HD Rips ·· Танец мечей: Цветочный круг / Touken Ranbu: Hanamaru (Наоя Такаси) [TV] [6 из 12] [Без хардсаба] [JAP+SUB] [2016, приключения, фэнтези, HDTVRip] [720p] Galfimbul 20758999431.93 GB 0 0 1480581263

11:34

1-Дек-16

Аниме | Rips ·· Танец мечей: Цветочный круг / Touken Ranbu: Hanamaru [TV] [01-08 из 12] [Без хардсаба] [RUS(ext), JAP, SUB] [2016, Приключения, Фэнтези, HDTVRip] [720p] Galfimbul 33187272053.09 GB 0 0 1480087991

18:33

25-Ноя-16

Аниме | Rips ·· Танец мечей: Цветочный круг / Touken Ranbu: Hanamaru [TV] [01-07 из 12] [Без хардсаба] [RUS(ext), JAP, SUB] [2016, Приключения, Фэнтези, HDTVRip] [720p] Galfimbul 28114201162.62 GB 0 0 1479261495

04:58

16-Ноя-16

Аниме | HD Rips ·· Танец мечей: Цветочный круг / Touken Ranbu: Hanamaru (Наоя Такаси) [TV] [5 из 12] [Без хардсаба] [JAP+SUB] [2016, приключения, фэнтези, HDTVRip] [720p] Galfimbul 16854964021.57 GB 0 0 1479024006

11:00

13-Ноя-16

Аниме | Rips ·· Танец мечей: Цветочный круг / Touken Ranbu: Hanamaru [TV] [01-06 из 12] [Без хардсаба] [RUS(ext), JAP, SUB] [2016, Приключения, Фэнтези, HDTVRip] [720p] Galfimbul 24234968902.26 GB 0 0 1478635943

23:12

8-Ноя-16

Аниме | HD Rips ·· Танец мечей: Цветочный круг / Touken Ranbu: Hanamaru (Наоя Такаси) [TV] [4 из 12] [Без хардсаба] [JAP+SUB] [2016, приключения, фэнтези, HDTVRip] [720p] Galfimbul 13948078271.3 GB 0 0 1478426524

13:02

6-Ноя-16

Аниме | Rips ·· Танец мечей: Цветочный круг / Touken Ranbu: Hanamaru [TV] [01-05 из 12] [Без хардсаба] [RUS(ext), JAP, SUB] [2016, Приключения, Фэнтези, HDTVRip] [720p] Galfimbul 19984419671.86 GB 0 0 1478048164

03:56

2-Ноя-16

Аниме | Rips ·· Танец мечей: Цветочный круг / Touken Ranbu: Hanamaru [TV] [01-04 из 12] [Без хардсаба] [RUS(ext), JAP, SUB] [2016, Приключения, Фэнтези, HDTVRip] [720p] Galfimbul 16727873911.56 GB 0 0 1477444059

04:07

26-Окт-16

Аниме | HD Rips ·· Танец мечей: Цветочный круг / Touken Ranbu: Hanamaru (Наоя Такаси) [TV] [2 из 12] [Без хардсаба] [JAP+SUB] [2016, приключения, фэнтези, HDTVRip] [720p] Galfimbul 741850448707 MB 0 0 1477081019

23:16

21-Окт-16

Аниме | Rips ·· Танец мечей: Цветочный круг / Touken Ranbu: Hanamaru [TV] [01-03 из 12] [Без хардсаба] [RUS(ext), JAP, SUB] [2016, Приключения, Фэнтези, HDTVRip] [720p] Galfimbul 13014401161.21 GB 0 0 1476843870

05:24

19-Окт-16

Аниме | Rips ·· Танец мечей: Цветочный круг / Touken Ranbu: Hanamaru [TV] [01-02 из 12] [Без хардсаба] [RUS(ext), JAP, SUB] [2016 г., Приключения, Фэнтези, HDTVRip] [720p] Galfimbul 880522929840 MB 0 0 1476313380

02:03

13-Окт-16

Аниме | Rips ·· Танец мечей: Цветочный круг / Touken Ranbu: Hanamaru [TV] [01 из 12] [Без хардсаба] [RUS(ext), JAP, SUB] [2016 г., Приключения, Фэнтези, HDTVRip] [720p] Galfimbul 458955241438 MB 0 0 1476025716

18:08

9-Окт-16

Еще никто не оставлял запись к записи скачать торрент Танец мечей: Цветочный круг Touken Ranbu: Hanamaru . Будь первым!

!Обратная связь