Скачать через торрент КисХСис KissXSis бесплатно Аниме Все серии на русском torrent

Если у вас наблюдаются проблемы со скриншотами, переходом по ссылками, скачиванием торрентов - проблемы в блокировщике рекламы AdBlock. #хорошегоДня!


Статистика раздачи
Размер:  2.03 GB   |    Зарегистрирован:  6 лет 6 месяцев   |    .torrent скачан:  87 раз   |   
Раздают:  1  
   
Загрузка...
 
Автор Сообщение

Polarnik

avatar Polarnik


KissXsis OVA / Kiss×sis
キスシス

Год выпуска: 2008
Страна: Япония
Жанр: Школа, Комедия, Романтика, Этти
Тип: OAV (>6 эп.), 25 мин.
Перевод: Субтитры
Русские субтитры:
Редактор/Оформление: Obelikx [KBM TeaM]
Переводчик/Перевод песен: Ootsuki [KBM TeaM]
Редактор/Перевод песен: Sakurachii [KBM TeaM]
Переводчик: Suxxxit-kun [KBM TeaM]
Хардсаб: нет
Режиссер: Нава Мунэнори

Описание: Две сестры-близняшки, Ако и Рико сильно любят своего сводного младшего сводного брата Кейта. После неких происшествий в школе, Ако и Рико признаются ему в любви. Однако Кейта не хочет видеть ничего больше, чем просто братскую и сестринскую любовь. Но после поступления в ту же школу, где учатся его сестры - он начинает испытывать к ним чувства.
Качество: DVDRip
Формат: MP4
Видео: MPEG4 Video (H264) 1280x720 16/9 ~1 997 Kbps 720р 23.976 fps
Аудио: AAC 48000Hz stereo 189Kbps
Video
ID : 1
Format : AVC
Format/Info : Advanced Video Codec
Format profile : High@L5.1
Format settings, CABAC : Yes
Format settings, ReFrames : 3 frames
Codec ID : avc1
Codec ID/Info : Advanced Video Coding
Duration : 24mn 24s
Bit rate mode : Variable
Bit rate : 1 803 Kbps
Maximum bit rate : 7 538 Kbps
Width : 1 280 pixels
Height : 720 pixels
Display aspect ratio : 16:9
Frame rate mode : Variable
Frame rate : 26.430 fps
Original frame rate : 59.940 fps
Minimum frame rate : 23.952 fps
Maximum frame rate : 60.000 fps
Color space : YUV
Chroma subsampling : 4:2:0
Bit depth : 8 bits
Scan type : Progressive
Bits/(Pixel*Frame) : 0.074
Stream size : 315 MiB (90%)
Writing library : x264 core 80 r1376M 3feaec2
Encoding settings : cabac=1 / ref=2 / deblock=1:0:0 / analyse=0x3:0x133 / me=umh / subme=7 / psy=1 / psy_rd=0.0:0.0 / mixed_ref=1 / me_range=16 / chroma_me=1 / trellis=2 / 8x8dct=1 / cqm=1 / deadzone=21,11 / fast_pskip=0 / chroma_qp_offset=0 / threads=12 / sliced_threads=0 / nr=0 / decimate=1 / mbaff=0 / constrained_intra=0 / bframes=3 / b_pyramid=1 / b_adapt=2 / b_bias=4 / direct=1 / wpredb=1 / wpredp=2 / keyint=250 / keyint_min=25 / scenecut=40 / rc=crf / mbtree=0 / crf=18.0 / qcomp=0.60 / qpmin=2 / qpmax=26 / qpstep=4 / ip_ratio=1.40 / pb_ratio=1.30 / aq=1:0.60
Encoded date : UTC 2010-06-08 06:49:43
Tagged date : UTC 2010-06-08 07:28:11

Audio
ID : 2
Format : AAC
Format/Info : Advanced Audio Codec
Format version : Version 4
Format profile : LC
Format settings, SBR : No
Codec ID : 40
Duration : 24mn 24s
Bit rate mode : Variable
Bit rate : 192 Kbps
Maximum bit rate : 193 Kbps
Channel(s) : 2 channels
Channel positions : Front: L R
Sampling rate : 48.0 KHz
Stream size : 32.9 MiB (9%)
Title : Imported with GPAC 0.4.6-DEV (build 1)
Language : Japanese
Encoded date : UTC 2010-06-08 07:28:09
Tagged date : UTC 2010-06-08 07:28:11

1 Episode 0 22.12.2008
2 Episode 1 22.05.2009
3 Episode 2 20.11.2009
4 Episode 3 04.06.2010
5 Episode 4 22.11.2010
6 Episode 5


Трекер:  [ 11-Мар-2011 16:23 ]

  

Скачать .torrent

Размер .torrent файла 11 KB


Размер: 2.03 GB
Хэш (hash) релиза: 51d700a164411018338190157acf57f80272f043
Подписка на обновления:

bot

Топик был перенесен в форум Аниме | Rips

Перенес Polarnik

Хотите добавить комментарий к записи скачать торрент КисХСис KissXSis

!Обратная связь