Скачать через торрент музыку Анатомия убийства Anatomy of a Murder бесплатно без регистрации torrent

Если у вас наблюдаются проблемы со скриншотами, переходом по ссылками, скачиванием торрентов - проблемы в блокировщике рекламы AdBlock. #хорошегоДня!


Статистика раздачи
Размер:  191 MB   |    Зарегистрирован:  11 месяцев   |    .torrent скачан:  59 раз   |   
Раздают:  1  
   
Загрузка...
 
Автор Сообщение

Galfimbul

avatar Galfimbul


Анатомия убийства / Anatomy of a Murder

Название альбома: Music by Duke Ellington From The Sound Track Of The Motion Picture
Жанр: Soundtrack
Год выпуска диска: 1991
Год выпуска фильма: 1959
Издатель (лейбл): Sony Music
Номер по каталогу: WK 75025
Аудиокодек: FLAC (*.flac)
Тип рипа: tracks+.cue
Битрейт аудио: lossless
Продолжительность: 34:41
Источник: What.cd (robman62)
Наличие сканов в содержимом раздачи: да

Треклист:
01. Main Title And Anatomy Of A Murder (3:55)
02. Flirtibird (2:14)
03. Way Early Subtone (4:01)
04. Hero To Zero (2:14)
05. Low Key Lightly (3:41)
06. Happy Anatomy (2:32)
07. Midnight Indigo (2:44)
08. Almost Cried (2:28)
09. Sunswept Sunday (1:54)
10. Grace Valse (2:31)
11. Happy Anatomy (1:27)
12. Haupe (2:39)
13. Upper And Outest (2:20)
 
Exact Audio Copy V1.1 from 23. June 2015

EAC extraction logfile from 14. October 2016, 16:20

Duke Ellington / Anatomy Of A Murder

Used drive : PBDS CD-ROM DH-48N1S Adapter: 1 ID: 0

Read mode : SecureUtilize accurate stream : YesDefeat audio cache : YesMake use of C2 pointers : No

Read offset correction : 6Overread into Lead-In and Lead-Out : NoFill up missing offset samples with silence : YesDelete leading and trailing silent blocks : NoNull samples used in CRC calculations : YesUsed interface : Native Win32 interface for Win NT & 2000Gap handling : Appended to previous track

Used output format : User Defined EncoderSelected bitrate : 768 kBit/sQuality : HighAdd ID3 tag : NoCommand line compressor : C:\Program Files (x86)\Exact Audio Copy\FLAC\FLAC.EXEAdditional command line options : -8 -V -T "ARTIST=%artist%" -T "TITLE=%title%" -T "ALBUM=%albumtitle%" -T "DATE=%year%" -T "TRACKNUMBER=%tracknr%" -T "GENRE=%genre%" -T "PERFORMER=%albuminterpret%" -T "COMPOSER=%composer%" %haslyrics%--tag-from-file=LYRICS="%lyricsfile%"%haslyrics% -T "ALBUMARTIST=%albumartist%" -T "DISCNUMBER=%cdnumber%" -T "TOTALDISCS=%totalcds%" -T "TOTALTRACKS=%numtracks%" -T "COMMENT=%comment%" %source% -o %dest%

TOC of the extracted CD

Track | Start | Length | Start sector | End sector --------------------------------------------------------- 1 | 0:00.00 | 3:54.72 | 0 | 17621 2 | 3:54.72 | 2:14.10 | 17622 | 27681 3 | 6:09.07 | 4:01.28 | 27682 | 45784 4 | 10:10.35 | 2:14.25 | 45785 | 55859 5 | 12:24.60 | 3:40.47 | 55860 | 72406 6 | 16:05.32 | 2:31.53 | 72407 | 83784 7 | 18:37.10 | 2:43.65 | 83785 | 96074 8 | 21:21.00 | 2:28.12 | 96075 | 107186 9 | 23:49.12 | 1:54.18 | 107187 | 115754 10 | 25:43.30 | 2:31.20 | 115755 | 127099 11 | 28:14.50 | 1:27.37 | 127100 | 133661 12 | 29:42.12 | 2:39.23 | 133662 | 145609 13 | 32:21.35 | 2:19.70 | 145610 | 156104

Track 1

Filename C:\EACRips\01 - Main Title And Anatomy Of A Murder.wav

Pre-gap length 0:00:02.00

Peak level 71.5 % Extraction speed 3.0 X Track quality 100.0 % Test CRC 12BFDFA7 Copy CRC 12BFDFA7 Accurately ripped (confidence 2) [337B15DE] (AR v2) Copy OK

Track 2

Filename C:\EACRips\02 - Flirtibird.wav

Pre-gap length 0:00:02.46

Peak level 84.2 % Extraction speed 3.6 X Track quality 99.9 % Test CRC 41A6E3F5 Copy CRC 41A6E3F5 Accurately ripped (confidence 2) [E69A43C5] (AR v2) Copy OK

Track 3

Filename C:\EACRips\03 - Way Early Subtone.wav

Pre-gap length 0:00:02.82

Peak level 66.8 % Extraction speed 4.6 X Track quality 99.9 % Test CRC 8F0BD5DA Copy CRC 8F0BD5DA Accurately ripped (confidence 2) [C7658B83] (AR v2) Copy OK

Track 4

Filename C:\EACRips\04 - Hero To Zero.wav

Pre-gap length 0:00:02.84

Peak level 63.7 % Extraction speed 5.1 X Track quality 100.0 % Test CRC 66891148 Copy CRC 66891148 Accurately ripped (confidence 2) [13BBFEA1] (AR v2) Copy OK

Track 5

Filename C:\EACRips\05 - Low Key Lightly.wav

Pre-gap length 0:00:02.84

Peak level 63.7 % Extraction speed 5.9 X Track quality 100.0 % Test CRC 038E8ED7 Copy CRC 038E8ED7 Accurately ripped (confidence 2) [B6145C7C] (AR v2) Copy OK

Track 6

Filename C:\EACRips\06 - Happy Anatomy.wav

Pre-gap length 0:00:02.82

Peak level 83.7 % Extraction speed 4.7 X Track quality 99.9 % Test CRC 31E48D29 Copy CRC 31E48D29 Accurately ripped (confidence 2) [DF1A35B9] (AR v2) Copy OK

Track 7

Filename C:\EACRips\07 - Midnight Indigo.wav

Pre-gap length 0:00:02.60

Peak level 50.5 % Extraction speed 6.1 X Track quality 100.0 % Test CRC 082ADB6D Copy CRC 082ADB6D Accurately ripped (confidence 2) [FBA9197F] (AR v2) Copy OK

Track 8

Filename C:\EACRips\08 - Almost Cried.wav

Pre-gap length 0:00:02.84

Peak level 65.5 % Extraction speed 6.2 X Track quality 100.0 % Test CRC 994A34D8 Copy CRC 994A34D8 Accurately ripped (confidence 2) [3291FF60] (AR v2) Copy OK

Track 9

Filename C:\EACRips\09 - Sunswept Sunday.wav

Pre-gap length 0:00:02.82

Peak level 67.5 % Extraction speed 6.0 X Track quality 100.0 % Test CRC 9C113478 Copy CRC 9C113478 Accurately ripped (confidence 2) [95A70357] (AR v2) Copy OK

Track 10

Filename C:\EACRips\10 - Grace Valse.wav

Pre-gap length 0:00:02.84

Peak level 68.6 % Extraction speed 6.5 X Track quality 100.0 % Test CRC 759F693C Copy CRC 759F693C Accurately ripped (confidence 2) [7B91297F] (AR v2) Copy OK

Track 11

Filename C:\EACRips\11 - Happy Anatomy.wav

Pre-gap length 0:00:02.70

Peak level 84.2 % Extraction speed 5.7 X Track quality 100.0 % Test CRC 796C837A Copy CRC 796C837A Accurately ripped (confidence 2) [04FCD387] (AR v2) Copy OK

Track 12

Filename C:\EACRips\12 - Haupe.wav

Pre-gap length 0:00:02.73

Peak level 52.3 % Extraction speed 6.8 X Track quality 100.0 % Test CRC A78F7378 Copy CRC A78F7378 Accurately ripped (confidence 2) [D5BDCBF5] (AR v2) Copy OK

Track 13

Filename C:\EACRips\13 - Upper And Outest.wav

Pre-gap length 0:00:02.84

Peak level 72.9 % Extraction speed 6.7 X Track quality 100.0 % Test CRC 49E0A45F Copy CRC 49E0A45F Accurately ripped (confidence 2) [30DEC8BD] (AR v2) Copy OK

All tracks accurately ripped

No errors occurred

End of status report

---- CUETools DB Plugin V2.1.6

[CTDB TOCID: D6xIwr18i..S52zOPJmQ6Rfic7M-] foundSubmit result: D6xIwr18i..S52zOPJmQ6Rfic7M- has been confirmedTrack | CTDB Status 1 | (5/5) Accurately ripped 2 | (5/5) Accurately ripped 3 | (5/5) Accurately ripped 4 | (5/5) Accurately ripped 5 | (5/5) Accurately ripped 6 | (5/5) Accurately ripped 7 | (5/5) Accurately ripped 8 | (5/5) Accurately ripped 9 | (5/5) Accurately ripped 10 | (5/5) Accurately ripped 11 | (5/5) Accurately ripped 12 | (5/5) Accurately ripped 13 | (4/5) Accurately ripped

==== Log checksum 1B5EA7999CF1C40B64BB0914B5093872B72E974A8D39A0D7C6AB3CAA78F822D9 ====
REM GENRE JazzREM DATE 1959REM DISCID B508210DREM COMMENT "ExactAudioCopy v1.1"PERFORMER "Duke Ellington"TITLE "Anatomy Of A Murder"FILE "01 - Main Title And Anatomy Of A Murder.wav" WAVE TRACK 01 AUDIO TITLE "Main Title And Anatomy Of A Murder" PERFORMER "Duke Ellington" INDEX 01 00:00:00 TRACK 02 AUDIO TITLE "Flirtibird" PERFORMER "Duke Ellington" INDEX 00 03:52:37FILE "02 - Flirtibird.wav" WAVE INDEX 01 00:00:00 TRACK 03 AUDIO TITLE "Way Early Subtone" PERFORMER "Duke Ellington" INDEX 00 02:11:23FILE "03 - Way Early Subtone.wav" WAVE INDEX 01 00:00:00 TRACK 04 AUDIO TITLE "Hero To Zero" PERFORMER "Duke Ellington" INDEX 00 03:58:40FILE "04 - Hero To Zero.wav" WAVE INDEX 01 00:00:00 TRACK 05 AUDIO TITLE "Low Key Lightly" PERFORMER "Duke Ellington" INDEX 00 02:11:37FILE "05 - Low Key Lightly.wav" WAVE INDEX 01 00:00:00 TRACK 06 AUDIO TITLE "Happy Anatomy" PERFORMER "Duke Ellington" INDEX 00 03:37:60FILE "06 - Happy Anatomy.wav" WAVE INDEX 01 00:00:00 TRACK 07 AUDIO TITLE "Midnight Indigo" PERFORMER "Duke Ellington" INDEX 00 02:29:08FILE "07 - Midnight Indigo.wav" WAVE INDEX 01 00:00:00 TRACK 08 AUDIO TITLE "Almost Cried" PERFORMER "Duke Ellington" INDEX 00 02:41:02FILE "08 - Almost Cried.wav" WAVE INDEX 01 00:00:00 TRACK 09 AUDIO TITLE "Sunswept Sunday" PERFORMER "Duke Ellington" INDEX 00 02:25:25FILE "09 - Sunswept Sunday.wav" WAVE INDEX 01 00:00:00 TRACK 10 AUDIO TITLE "Grace Valse" PERFORMER "Duke Ellington" INDEX 00 01:51:30FILE "10 - Grace Valse.wav" WAVE INDEX 01 00:00:00 TRACK 11 AUDIO TITLE "Happy Anatomy" PERFORMER "Duke Ellington" INDEX 00 02:28:42FILE "11 - Happy Anatomy.wav" WAVE INDEX 01 00:00:00 TRACK 12 AUDIO TITLE "Haupe" PERFORMER "Duke Ellington" INDEX 00 01:24:57FILE "12 - Haupe.wav" WAVE INDEX 01 00:00:00 TRACK 13 AUDIO TITLE "Upper And Outest" PERFORMER "Duke Ellington" INDEX 00 02:36:35FILE "13 - Upper And Outest.wav" WAVE INDEX 01 00:00:00
Rarely has such sumptuous jazz been married to a film soundtrack. Written in 1959 for director Otto Preminger's courtroom drama of sex and jealousy, the burnished glow of Ellington's score is undeniably erotic - indeed, the powerfully charged, slow burn of the second track here, "Flirtibird," is among Ellington's most sensual recordings.

Classic film scores build on recurring motifs that identify characters and situations, amplifying their existence for the viewer through the sense of hearing. The "flirty bird" of the title - Lee Remick's Laura Manion - is evoked early on by a six-note phrase, with emotional hues that undergo dramatic changes every time it reappears along the score's course. "Way Early Subtone" expands on that phrase in a passionate, extended coda that tries to rekindle the flame; by the time of "Almost Cried," the melody has taken on a deep, hard-edged sadness.

The Ellington orchestra sounded exquisite in the early summer sessions that produced this soundtrack. With a burnished sonic brilliance reminiscent of the glorious 1940 "Blanton/Webster" edition of the band, and soloists like Johnny Hodges and Paul Gonsalves (whose masterful tenor saxophone solo on "Hero To Zero" is surrounded by some truly adventurous harmonies), Ellington's tightly woven soundtrack took on a life independent of its original context. In doing so, it became one of Duke's most satisfying albums.


Трекер:  [ 15-Окт-2016 01:30 ]

  

Скачать .torrent

Размер .torrent файла 16 KB


Размер: 191 MB
Хэш (hash) релиза: 503090a2bb7089632cebe1b109d43f56498dff3c

Еще никто не оставлял запись к записи скачать торрент Анатомия убийства Anatomy of a Murder . Будь первым!

!Обратная связь