Скачать через торрент Искусство обмана Cheating Craft бесплатно Аниме Все серии на русском torrent

Если у вас наблюдаются проблемы со скриншотами, переходом по ссылками, скачиванием торрентов - проблемы в блокировщике рекламы AdBlock. #хорошегоДня!


Статистика раздачи
Размер:  239 MB   |    Зарегистрирован:  11 месяцев   |    .torrent скачан:  11 раз   |   
Раздают:  1  
   
Загрузка...
 
Автор Сообщение

Galfimbul

avatar Galfimbul


Искусство обмана / Cheating Craft
Страна: Япония
Год выпуска: 2016 г.
Тип: TV
Жанр: Сёнэн, школа, комедия, экшн
Продолжительность: 12 эп. по 15 мин
Русские субтитры: YakuSub Studio
Редактура: Harushechka
Переводчик/Перевод песен/Оформление: Nika_Elrik
Режиссер: Мотонага Кэйтаро

Студия:

Описание: Новый китайско-японский проект, адаптирующий китайское ранобэ Zuobi Yishu автора Gemini Xin Luo, которое также стало основой для создания маньхуа.

Мумей должен подготовиться к вступительным экзаменам в Национальный университет. Ведь чтобы во взрослой жизни получить приличную работу, необходим диплом. А лучше не просто диплом, а диплом престижного университета.
Однако знаний у парня нет, и для получения хороших оценок на экзаменах он предпочитает не зубрить, а списывать. Тем более опыта в мошенничестве ему не занимать. Он начинает создавать систему, чтобы одурачить преподавателей и камеры видеонаблюдения.
В противоположность ему, Кои - девушка-зубрилка, все свои оценки зарабатывает заучиванием школьного материала.
Эти двое представляют вечно соперничающие группы учеников, стремящиеся занять первые места в рейтинге успеваемости, обойдя соперников. Состязание умов добавляет огня и без того жаркой экзаменационной поре.

<span class="post-font-sans1">Качество: HDTVRip | Равка: Leopard-Raws Формат: mp4 | Тип Видео: без хардсаба
Видео: х264, 8 bits, 1280x720, 2427 kbps, 23.976 fps, (16:9)
JP - AAC, 192 kbps, 48.0 KHz, 2 ch Язык Японский</span>
01. The National Special-Level University Exam of Fate!
Общее
Полное имя : D:\[Leopard-Raws]\[Leopard-Raws] Cheating Craft\[Leopard-Raws] Cheating Craft - 01 RAW (MX 1280x720 x264 AAC).mp4
Формат : MPEG-4
Профиль формата : Base Media
Идентификатор кодека : isom
Размер файла : 239 Мбайт
Продолжительность : 12 м.
Режим общего битрейта : Переменный
Общий поток : 2622 Кбит/сек
Дата кодирования : UTC 2016-10-05 17:44:38
Дата пометки : UTC 2016-10-05 17:44:38

Видео
Идентификатор : 1
Формат : AVC
Формат/Информация : Advanced Video Codec
Профиль формата : High@L4.1
Параметр CABAC формата : Да
Параметр ReFrames формата : 4 кадра
Идентификатор кодека : avc1
Идентификатор кодека/Информация : Advanced Video Coding
Продолжительность : 12 м.
Битрейт : 2427 Кбит/сек
Максимальный битрейт : 14,4 Мбит/сек
Ширина : 1280 пикселей
Высота : 720 пикселей
Соотношение сторон : 16:9
Режим частоты кадров : Постоянный
Частота кадров : 23,976 кадра/сек
Цветовое пространство : YUV
Субдискретизация насыщенности : 4:2:0
Битовая глубина : 8 бит
Тип развёртки : Прогрессивная
Бит/(Пиксели*Кадры) : 0.110
Размер потока : 221 Мбайт (93%)
Заголовок : 264:fps=23.976@GPAC0.5.2-DEV-rev376-g5eeb74d-master
Библиотека кодирования : x264 core 129 r2245+729M 1a52e03
Настройки программы : cabac=1 / ref=4 / deblock=1:1:-1 / analyse=0x3:0x113 / me=umh / subme=9 / psy=1 / fade_compensate=0.00 / psy_rd=1.00:0.00 / mixed_ref=1 / me_range=24 / chroma_me=1 / trellis=2 / 8x8dct=1 / cqm=0 / deadzone=21,11 / fast_pskip=1 / chroma_qp_offset=-2 / threads=8 / lookahead_threads=1 / sliced_threads=0 / nr=0 / decimate=1 / interlaced=0 / bluray_compat=0 / constrained_intra=0 / fgo=0 / bframes=9 / b_pyramid=2 / b_adapt=2 / b_bias=0 / direct=1 / weightb=1 / open_gop=0 / weightp=2 / keyint=240 / keyint_min=24 / scenecut=40 / intra_refresh=0 / rc=crf / mbtree=0 / crf=18.5 / qcomp=0.72 / qpmin=0 / qpmax=69 / qpstep=4 / ip_ratio=1.40 / pb_ratio=1.30 / aq=1:0.85
Дата кодирования : UTC 2016-10-05 17:44:38
Дата пометки : UTC 2016-10-05 17:44:45
Основные цвета : BT.709
Характеристики трансфера : BT.709
Коэффициенты матрицы : BT.709

Аудио
Идентификатор : 2
Формат : AAC
Формат/Информация : Advanced Audio Codec
Профиль формата : LC
Идентификатор кодека : 40
Продолжительность : 12 м.
Вид битрейта : Переменный
Битрейт : 192 Кбит/сек
Максимальный битрейт : 226 Кбит/сек
Каналы : 2 канала
Расположение каналов : Front: L R
Частота : 48,0 КГц
Метод сжатия : С потерями
Размер потока : 17,5 Мбайт (7%)
Язык : Japanese
Дата кодирования : UTC 2016-10-05 15:45:16
Дата пометки : UTC 2016-10-05 17:44:45


Трекер:  [ 07-Окт-2016 08:30 ]

  

Скачать .torrent

Размер .torrent файла 19 KB


Размер: 239 MB
Хэш (hash) релиза: 4b2906886b6c36c2daa433c51d51031311b98872
Подписка на обновления:

Торренты, похожие на Искусство обмана Cheating Craft скачать торрент

Форум Название Автор Размер S L Добавлен
Аниме | HD Rips ·· Искусство обмана / Cheating Craft (Мотонага Кэйтаро) [TV] [12 из 12] [Без хардсаба] [JAP+SUB] [2016, сёнэн, школа, комедия, экшн, HDTVRip] [720p] Galfimbul 31380490092.92 GB 0 0 1482797290

03:08

27-Дек-16

Аниме | HD Rips ·· Искусство Обмана / Cheating Craft (Мотонага Кэйтаро) [TV] [12 из 12] [Без хардсаба] [RUS(int), JAP, SUB] [2016, экшен, комедия, школа, WEBRip] [720p] Galfimbul 24237464622.26 GB 0 0 1482350375

22:59

21-Дек-16

Аниме | HD Rips ·· Искусство обмана / Cheating Craft (Мотонага Кэйтаро) [TV] [11 из 12] [Без хардсаба] [JAP+SUB] [2016, сёнэн, школа, комедия, экшн, HDTVRip] [720p] Galfimbul 28629003042.67 GB 0 0 1482251527

19:32

20-Дек-16

Аниме | HD Rips ·· Искусство Обмана / Cheating Craft (Мотонага Кэйтаро) [TV] [11 из 12] [Без хардсаба] [RUS(int), JAP, SUB] [2016, экшен, комедия, школа, WEBRip] [720p] Galfimbul 22243164002.07 GB 0 0 1481988112

18:21

17-Дек-16

Аниме | HD Rips ·· Искусство обмана / Cheating Craft (Мотонага Кэйтаро) [TV] [10 из 12] [Без хардсаба] [JAP+SUB] [2016, сёнэн, школа, комедия, экшн, HDTVRip] [720p] Galfimbul 26188833942.44 GB 0 0 1481716926

15:02

14-Дек-16

Аниме | HD Rips ·· Искусство Обмана / Cheating Craft (Мотонага Кэйтаро) [TV] [10 из 12] [Без хардсаба] [RUS(int), JAP, SUB] [2016, экшен, комедия, школа, WEBRip] [720p] Galfimbul 20249565681.89 GB 0 0 1481583440

01:57

13-Дек-16

Аниме | HD Rips ·· Искусство обмана / Cheating Craft (Мотонага Кэйтаро) [TV] [9 из 12] [Без хардсаба] [JAP+SUB] [2016, сёнэн, школа, комедия, экшн, HDTVRip] [720p] Galfimbul 24222680112.26 GB 0 0 1481155452

03:04

8-Дек-16

Аниме | HD Rips ·· Искусство Обмана / Cheating Craft (Мотонага Кэйтаро) [TV] [9 из 12] [Без хардсаба] [RUS(int), JAP, SUB] [2016, экшен, комедия, школа, WEBRip] [720p] Galfimbul 18210660041.7 GB 0 0 1480619116

22:05

1-Дек-16

Аниме | HD Rips ·· Искусство обмана / Cheating Craft (Мотонага Кэйтаро) [TV] [8 из 12] [Без хардсаба] [JAP+SUB] [2016, сёнэн, школа, комедия, экшн, HDTVRip] [720p] Galfimbul 20507390811.91 GB 0 0 1480586225

12:57

1-Дек-16

Аниме | HD Rips ·· Искусство Обмана / Cheating Craft (Мотонага Кэйтаро) [TV] [8 из 12] [Без хардсаба] [RUS(int), JAP, SUB] [2016, экшен, комедия, школа, WEBRip] [720p] Galfimbul 16174123861.51 GB 0 0 1479933657

23:40

23-Ноя-16

Аниме | HD Rips ·· Искусство обмана / Cheating Craft (Мотонага Кэйтаро) [TV] [6 из 12] [Без хардсаба] [JAP+SUB] [2016, сёнэн, школа, комедия, экшн, HDTVRip] [720p] Galfimbul 16347119321.52 GB 0 0 1479461963

12:39

18-Ноя-16

Аниме | HD Rips ·· Искусство Обмана / Cheating Craft (Мотонага Кэйтаро) [TV] [7 из 12] [Без хардсаба] [RUS(int), JAP, SUB] [2016, экшен, комедия, школа, WEBRip] [720p] Galfimbul 14175326871.32 GB 0 0 1479330006

00:00

17-Ноя-16

Аниме | HD Rips ·· Искусство Обмана / Cheating Craft (Мотонага Кэйтаро) [TV] [6 из 12] [Без хардсаба] [RUS(int), JAP, SUB] [2016, экшен, комедия, школа, WEBRip] [720p] Galfimbul 12177320091.13 GB 0 0 1478723425

23:30

9-Ноя-16

Аниме | HD Rips ·· Искусство Обмана / Cheating Craft [TV] [5 из 12] [Без хардсаба] [RUS(int), JAP, SUB] [2016, экшен, комедия, школа, WEBRip] [720p] Galfimbul 1014506843968 MB 0 0 1478159972

10:59

3-Ноя-16

Аниме | HD Rips ·· Искусство Обмана / Cheating Craft [TV] [4 из 12] [Без хардсаба] [RUS(int), JAP, SUB] [2016, экшен, комедия, школа, WEBRip] [720p] Galfimbul 814748604777 MB 0 0 1477769961

22:39

29-Окт-16

Аниме | HD Rips ·· Искусство обмана / Cheating Craft (Мотонага Кэйтаро) [TV] [4 из 12] [Без хардсаба] [JAP+SUB] [2016, сёнэн, школа, комедия, экшн, HDTVRip] [720p] Galfimbul 963875899919 MB 0 0 1477728146

11:02

29-Окт-16

Аниме | HD Rips ·· Искусство Обмана / Cheating Craft [TV] [3 из 12] [Без хардсаба] [RUS(int), JAP, SUB] [2016, экшен, комедия, школа, WEBRip] [720p] Galfimbul 611111130583 MB 0 0 1477254076

23:21

23-Окт-16

Аниме | HD Rips ·· Искусство обмана / Cheating Craft (Мотонага Кэйтаро) [TV] [3 из 12] [Без хардсаба] [JAP+SUB] [2016, сёнэн, школа, комедия, экшн, HDTVRip] [720p] Galfimbul 767021147731 MB 0 0 1477253919

23:18

23-Окт-16

Аниме | HD Rips ·· Искусство обмана / Cheating Craft (Мотонага Кэйтаро) [TV] [2 из 12] [Без хардсаба] [JAP+SUB] [2016, сёнэн, школа, комедия, экшн, HDTVRip] [720p] Galfimbul 504383238481 MB 0 0 1477081029

23:17

21-Окт-16

Аниме | HD Rips ·· Искусство Обмана / Cheating Craft [TV] [2 из 12] [Без хардсаба] [RUS(int), JAP, SUB] [2016, экшен, комедия, школа, WEBRip] [720p] Galfimbul 407545225389 MB 0 0 1476557320

21:48

15-Окт-16

Еще никто не оставлял запись к записи скачать торрент Искусство обмана Cheating Craft . Будь первым!

!Обратная связь