Скачать через торрент Ханда Handa-kun бесплатно Аниме Все серии на русском torrent

Если у вас наблюдаются проблемы со скриншотами, переходом по ссылками, скачиванием торрентов - проблемы в блокировщике рекламы AdBlock. #хорошегоДня!


Статистика раздачи
Размер:  3.99 GB   |    Зарегистрирован:  11 месяцев   |    .torrent скачан:  16 раз   |   
Раздают:  1  
   
Загрузка...
 
Автор Сообщение

Galfimbul

avatar Galfimbul


Ханда / Handa-kun



Страна: Япония
Год выпуска: 2016 г.
Жанр: Комедия
Тип: TV
Продолжительность: 24 мин.
Режиссер: Кояма Ёситака
Студия: Diomedea

Описание: Приквел аниме Баракамон о юном каллиграфисте Ханда Сей.

Качество: HDTVRip
Тип релиза: Без хардсаба
Формат видео: MP4
Наличие линковки: Нет
Релиз/Автор рипа: Ohys-Raws
Видео: x264 (8 bit), 1280x720, 1762 kbps, 23.976 fps
Аудио: aac, 192 kbps, 48.0 KHz, 2 ch Язык Японский
Субтитры: Внешние Язык субтитров русский ; Перевод: Andeground team, перевод Esito. Редактор: Hige-san, Dreamers Team
Формат : MPEG-4Профиль формата : Base MediaИдентификатор кодека : isom (isom/avc1)Размер файла : 344 МбайтПродолжительность : 24 м.Режим общего битрейта : ПеременныйОбщий поток : 1961 Кбит/секДата кодирования : UTC 2016-07-07 17:56:39Дата пометки : UTC 2016-07-07 17:56:39

ВидеоИдентификатор : 1Формат : AVCФормат/Информация : Advanced Video CodecПрофиль формата : Main@L4.1Параметр CABAC формата : ДаПараметр ReFrames формата : 4 кадраИдентификатор кодека : avc1Идентификатор кодека/Информация : Advanced Video CodingПродолжительность : 24 м.Битрейт : 1762 Кбит/секМаксимальный битрейт : 19,0 Мбит/секШирина : 1280 пикселейВысота : 720 пикселейСоотношение сторон : 16:9Режим частоты кадров : ПостоянныйЧастота кадров : 23,976 (24000/1001) кадра/секЦветовое пространство : YUVСубдискретизация насыщенности : 4:2:0Битовая глубина : 8 битТип развёртки : ПрогрессивнаяБит/(Пиксели*Кадры) : 0.080Размер потока : 309 Мбайт (90%)Библиотека кодирования : x264 core 148 r2705 3f5ed56Настройки программы : cabac=1 / ref=3 / deblock=1:0:0 / analyse=0x1:0x111 / me=hex / subme=7 / psy=1 / psy_rd=1.00:0.00 / mixed_ref=1 / me_range=16 / chroma_me=1 / trellis=1 / 8x8dct=0 / cqm=0 / deadzone=21,11 / fast_pskip=1 / chroma_qp_offset=-2 / threads=12 / lookahead_threads=2 / sliced_threads=0 / nr=0 / decimate=1 / interlaced=0 / bluray_compat=0 / constrained_intra=0 / bframes=3 / b_pyramid=2 / b_adapt=1 / b_bias=0 / direct=1 / weightb=1 / open_gop=0 / weightp=2 / keyint=240 / keyint_min=1 / scenecut=40 / intra_refresh=0 / rc_lookahead=40 / rc=crf / mbtree=1 / crf=20.0 / qcomp=0.60 / qpmin=0 / qpmax=69 / qpstep=4 / ip_ratio=1.40 / aq=1:1.50Дата кодирования : UTC 2016-07-07 17:56:39Дата пометки : UTC 2016-07-07 17:56:42Цветовой диапазон : LimitedОсновные цвета : BT.709Характеристики трансфера : BT.709Коэффициенты матрицы : BT.709

АудиоИдентификатор : 2Формат : AACФормат/Информация : Advanced Audio CodecПрофиль формата : LCИдентификатор кодека : 40Продолжительность : 24 м.Вид битрейта : ПеременныйБитрейт : 192 Кбит/секМаксимальный битрейт : 243 Кбит/секКаналы : 2 каналаРасположение каналов : Front: L RЧастота : 48,0 КГцЧастота кадров : 46,875 кадров/сек (1024 spf)Метод сжатия : С потерямиРазмер потока : 34,1 Мбайт (10%)Язык : JapaneseДата кодирования : UTC 2016-07-07 17:45:01Дата пометки : UTC 2016-07-07 17:56:42
Серия 1. Ханда и девушки.

Серия 2. Ханда и продолжение первого эпизода. Ханда и староста. Ханда и модель.

Серия 3. Ханда и прогульщик. Ханда и урок кулинарии. Ханда и лучший друг.

Серия 4. Ханда и Ханда? Ханда и женская ревность. Ханда и его круг общения.

Серия 5. Ханда и учсовет. Ханда и потеря памяти.

Серия 6. Ханда и друзья друзей. Ханда и Дэш Нигасино. Ханда и хиромантия.

Серия 7. Ханда и дополнительный экзамен. Ханда и библиотека.

Серия 8. Ханда и школьная экскурсия.

Серия девятая. Ханда и лягушка. Ханда и преследователь.

Серия 10. Ханда и обычный парень. Ханда и красотки.

Серия 11. Ханда и подготовка к фестивалю.

Серия 12. Ханда и культурный фестиваль.


Трекер:  [ 28-Сен-2016 22:30 ]

  

Скачать .torrent

Размер .torrent файла 22 KB


Размер: 3.99 GB
Хэш (hash) релиза: 0d2247dfe1b4a009fb5c566dc1362b725a8cd80e
Подписка на обновления:

Торренты, похожие на Ханда Handa-kun скачать торрент

Форум Название Автор Размер S L Добавлен
Аниме | HD Rips ·· Ханда / Handa-kun [TV] [11 из >12] [Без хардсаба] [JAP, SUB] [2016 г., Комедия, HDTVRip] [720p] Galfimbul 38964649363.63 GB 0 0 1474698511

09:28

24-Сен-16

Аниме | HD Rips ·· Ханда / Handa-kun [TV] [10 из >12] [Без хардсаба] [JAP, SUB] [2016 г., Комедия, HDTVRip] [720p] Galfimbul 35683416283.32 GB 0 0 1474403218

23:26

20-Сен-16

Аниме | HD Rips ·· Ханда / Handa-kun [TV] [9 из >12] [Без хардсаба] [JAP, SUB] [2016 г., Комедия, HDTVRip] [720p] Galfimbul 32148889532.99 GB 0 0 1473535794

22:29

10-Сен-16

Аниме | HD Rips ·· Ханда / Handa-kun [TV] [8 из >12] [Без хардсаба] [JAP, SUB] [2016 г., Комедия, HDTVRip] [720p] Galfimbul 28371077882.64 GB 0 0 1472504266

23:57

29-Авг-16

Аниме | HD Rips ·· Ханда / Handa-kun [TV] [7 из >12] [Без хардсаба] [JAP, SUB] [2016 г., Комедия, HDTVRip] [720p] Galfimbul 24927451412.32 GB 0 0 1471976851

21:27

23-Авг-16

Аниме | HD Rips ·· Ханда / Handa-kun [TV] [6 из >12] [Без хардсаба] [JAP, SUB] [2016 г., Комедия, HDTVRip] [720p] Galfimbul 21618950432.01 GB 0 0 1471365561

19:39

16-Авг-16

Аниме | HD Rips ·· Ханда / Handa-kun [TV] [5 из >12] [Без хардсаба] [JAP, SUB] [2016 г., Комедия, HDTVRip] [720p] Galfimbul 17999087151.68 GB 0 0 1470581879

17:57

7-Авг-16

Аниме | HD Rips ·· Ханда / Handa-kun [TV] [5 из >12] [Без хардсаба] [JAP, SUB] [2016 г., Комедия, HDTVRip] [720p] Galfimbul 17999253311.68 GB 0 0 1470520865

01:01

7-Авг-16

Аниме | HD Rips ·· Ханда / Handa-kun [TV] [4 из >12] [Без хардсаба] [JAP, SUB] [2016 г., Комедия, HDTVRip] [720p] Galfimbul 14167937541.32 GB 0 0 1470246945

20:55

3-Авг-16

Аниме | HD Rips ·· Ханда / Handa-kun [TV] [4 из >12] [Без хардсаба] [JAP, SUB] [2016 г., Комедия, HDTVRip] [720p] Galfimbul 14167842261.32 GB 0 0 1469975534

17:32

31-Июл-16

Аниме | HD Rips ·· Ханда / Handa-kun [TV] [3 из >12] [Без хардсаба] [JAP, SUB] [2016 г., Комедия, HDTVRip] [720p] Galfimbul 10839879251.01 GB 0 0 1469470146

21:09

25-Июл-16

Аниме | HD Rips ·· Ханда / Handa-kun [TV] [2 из >12] [Без хардсаба] [JAP, SUB] [2016 г., Комедия, HDTVRip] [720p] Galfimbul 713456435680 MB 0 0 1468960883

23:41

19-Июл-16

Аниме | HD Rips ·· Ханда / Handa-kun [TV] [1 из >12] [Без хардсаба] [JAP, SUB] [2016 г., Комедия, WEBRip] [720p] Galfimbul 360358816344 MB 0 0 1468265357

22:29

11-Июл-16

Еще никто не оставлял запись к записи скачать торрент Ханда Handa-kun . Будь первым!

!Обратная связь