Aoi Tamago torrent

, , - AdBlock. #!


5.85 GB   |    :  11    |    .torrent :  6    |   
1  
   
...
 

Galfimbul

avatar Galfimbul


/ Aoi Tamago / Pale Cocoon

:
: 2005 .
: ,
: OVA
: 25 . (1 .)
:
:
: , , . , . . , , . , . , ? . , . , .

, World Art
<div class="post-box">: BDRemux
:
: MKV
:
: AVC, 8 , 1920x1080, 30 000 Kbps, 23.976 fps
: DTS-HD MA, 3 944 kbps, 48 kHz, 5.1 ch (DTS Core, 1 509 kbps, 48 kHz, 5.1 ch)
2: LPCM, 2 304 kbps, 48 kHz, 2 ch
: pgs,
2: pgs,
3: pgs,
4: pgs,
5: pgs,
6: pgs,
7: pgs,
8: pgs,
9: pgs,
10: pgs,
File: H:\E\Aoi Tamago\Aoi Tamago [1920x1080 x264 DTS-HD MA LPCM].mkv
Duration: 00:22:55 (1374.54)
Track #1: video
lang: und (1)
codc: V_MPEG4/ISO/AVC -> H264/AVC (22)
reso: 1920x1080 -> 16:9
fram: 23.976 fps
rate: 30000 kbps (29999.6)
dura: 00:22:54 (1374.46)
size: 4.80 GB (5154150537)
Track #2: audio (Japanese DTS-HD MA)
lang: jpn -> Japanese (2)
codc: A_DTS -> DTS (13)
chan: 6 -> 5.1 Surround
samp: 48000 Hz
rate: 3944 kbps (3943.92)
dura: 00:22:54 (1374.47)
size: 646.21 MB (677602921)
Track #3: audio (Japanese LPCM)
lang: jpn -> Japanese (2)
codc: A_PCM/INT/LIT -> PCM (10)
chan: 2 -> Stereo
samp: 48000 Hz
rate: 2304 kbps (2304.06)
dura: 00:22:55 (1374.50)
size: 377.53 MB (395866010)
Track #4: subtitles (English)
lang: Unknown (1)
type: S_HDMV/PGS -> Unknown (1)
size: 5.46 MB (5724517)
Track #5: subtitles (Spanish)
lang: spa -> Spanish (9)
type: S_HDMV/PGS -> Unknown (1)
size: 6.55 MB (6865548)
Track #6: subtitles (French)
lang: fre -> French (6)
type: S_HDMV/PGS -> Unknown (1)
size: 6.09 MB (6382366)
Track #7: subtitles (German)
lang: ger -> German (5)
type: S_HDMV/PGS -> Unknown (1)
size: 6.54 MB (6856065)
Track #8: subtitles (Italian)
lang: ita -> Italian (8)
type: S_HDMV/PGS -> Unknown (1)
size: 7.83 MB (8210226)
Track #9: subtitles (Portuguese)
lang: por -> Portuguese (21)
type: S_HDMV/PGS -> Unknown (1)
size: 5.61 MB (5885884)
Track #10: subtitles (Russian)
lang: rus -> Russian (15)
type: S_HDMV/PGS -> Unknown (1)
size: 4.73 MB (4961237)
Track #11: subtitles (Chinese)
lang: chi -> Chinese (unspecified) (3)
type: S_HDMV/PGS -> Unknown (1)
size: 3.45 MB (3621938)
Track #12: subtitles (Japanese)
lang: jpn -> Japanese (2)
type: S_HDMV/PGS -> Unknown (1)
size: 3.39 MB (3557785)
Track #13: subtitles (Hebrew)
lang: heb -> Hebrew (32)
type: S_HDMV/PGS -> Unknown (1)
size: 1.58 MB (1661614)
Sizes: (check sanity)
disk: 5.85 GB (6282038236)
trac: 1.85 GB (1986379352) [based on track size]
bitr: 5.80 GB (6227598765) [based on bitrate]
tdif: 4.00 GB (4295658884) 68.38%
bdif: 51.92 MB (54439470) 0.86%
General
Unique ID : 250118319360023176207375982686351091797 (0xBC2B093D29CDC596820977B1BC836855)
Complete name : H:\E\Aoi Tamago\Aoi Tamago [1920x1080 x264 DTS-HD MA LPCM].mkv
Format : Matroska
Format version : Version 4 / Version 2
File size : 5.85 GiB
Duration : 22mn 54s
Overall bit rate mode : Variable
Overall bit rate : 36.6 Mbps
Encoded date : UTC 2016-09-27 17:17:34
Writing application : mkvmerge v9.0.1 ('Obstacles') 64bit
Writing library : libebml v1.3.3 + libmatroska v1.4.4

Video
ID : 1
Format : AVC
Format/Info : Advanced Video Codec
Format profile : High@L4.1
Format settings, CABAC : Yes
Format settings, ReFrames : 3 frames
Codec ID : V_MPEG4/ISO/AVC
Duration : 22mn 54s
Bit rate mode : Variable
Bit rate : 30.0 Mbps
Maximum bit rate : 35.0 Mbps
Width : 1 920 pixels
Height : 1 080 pixels
Display aspect ratio : 16:9
Frame rate mode : Constant
Frame rate : 23.976 (24000/1001) fps
Original frame rate : 23.976 (23976/1000) fps
Color space : YUV
Chroma subsampling : 4:2:0
Bit depth : 8 bits
Scan type : Progressive
Bits/(Pixel*Frame) : 0.603
Stream size : 4.80 GiB (82%)
Writing library : x264 core 120 r2120 0c7dab9
Encoding settings : cabac=1 / ref=4 / deblock=1:-1:-1 / analyse=0x3:0x113 / me=umh / subme=8 / psy=1 / psy_rd=1.00:0.15 / mixed_ref=1 / me_range=16 / chroma_me=1 / trellis=1 / 8x8dct=1 / cqm=0 / deadzone=21,11 / fast_pskip=1 / chroma_qp_offset=-3 / threads=6 / sliced_threads=0 / slices=4 / nr=0 / decimate=1 / interlaced=0 / bluray_compat=1 / constrained_intra=0 / bframes=3 / b_pyramid=1 / b_adapt=2 / b_bias=0 / direct=3 / weightb=1 / open_gop=1 / weightp=1 / keyint=24 / keyint_min=2 / scenecut=40 / intra_refresh=0 / rc_lookahead=24 / rc=2pass / mbtree=1 / bitrate=30000 / ratetol=1.0 / qcomp=0.60 / qpmin=0 / qpmax=69 / qpstep=4 / cplxblur=20.0 / qblur=0.5 / vbv_maxrate=35000 / vbv_bufsize=30000 / nal_hrd=vbr / ip_ratio=1.40 / aq=1:1.00
Default : Yes
Forced : Yes
Color range : Limited
Color primaries : BT.709
Transfer characteristics : BT.709
Matrix coefficients : BT.709

Audio #1
ID : 2
Format : DTS
Format/Info : Digital Theater Systems
Format profile : MA / Core
Mode : 16
Format settings, Endianness : Big
Codec ID : A_DTS
Duration : 22mn 54s
Bit rate mode : Variable / Constant
Bit rate : 3 943 Kbps / 1 509 Kbps
Channel(s) : 6 channels
Channel positions : Front: L C R, Side: L R, LFE
Sampling rate : 48.0 KHz
Frame rate : 93.750 fps (512 spf)
Bit depth : 24 bits
Compression mode : Lossless / Lossy
Stream size : 646 MiB (11%)
Title : Japanese DTS-HD MA
Language : Japanese
Default : Yes
Forced : Yes

Audio #2
ID : 3
Format : PCM
Codec ID : A_PCM/INT/LIT
Duration : 22mn 54s
Bit rate mode : Constant
Bit rate : 2 304 Kbps
Channel(s) : 2 channels
Sampling rate : 48.0 KHz
Frame rate : 32.000 fps (1500 spf)
Bit depth : 24 bits
Stream size : 378 MiB (6%)
Title : Japanese LPCM
Language : Japanese
Default : No
Forced : No

Text #1
ID : 4
Format : PGS
Codec ID : S_HDMV/PGS
Codec ID/Info : Picture based subtitle format used on BDs/HD-DVDs
Duration : 22mn 46s
Bit rate : 33.5 Kbps
Count of elements : 419
Stream size : 5.46 MiB (0%)
Title : English
Language : English
Default : No
Forced : No

Text #2
ID : 5
Format : PGS
Codec ID : S_HDMV/PGS
Codec ID/Info : Picture based subtitle format used on BDs/HD-DVDs
Duration : 22mn 46s
Bit rate : 40.2 Kbps
Count of elements : 436
Stream size : 6.55 MiB (0%)
Title : Spanish
Language : Spanish
Default : No
Forced : No

Text #3
ID : 6
Format : PGS
Codec ID : S_HDMV/PGS
Codec ID/Info : Picture based subtitle format used on BDs/HD-DVDs
Duration : 22mn 46s
Bit rate : 37.4 Kbps
Count of elements : 452
Stream size : 6.09 MiB (0%)
Title : French
Language : French
Default : No
Forced : No

Text #4
ID : 7
Format : PGS
Codec ID : S_HDMV/PGS
Codec ID/Info : Picture based subtitle format used on BDs/HD-DVDs
Duration : 22mn 46s
Bit rate : 40.1 Kbps
Count of elements : 455
Stream size : 6.54 MiB (0%)
Title : German
Language : German
Default : No
Forced : No

Text #5
ID : 8
Format : PGS
Codec ID : S_HDMV/PGS
Codec ID/Info : Picture based subtitle format used on BDs/HD-DVDs
Duration : 22mn 46s
Bit rate : 48.1 Kbps
Count of elements : 465
Stream size : 7.83 MiB (0%)
Title : Italian
Language : Italian
Default : No
Forced : No

Text #6
ID : 9
Format : PGS
Codec ID : S_HDMV/PGS
Codec ID/Info : Picture based subtitle format used on BDs/HD-DVDs
Duration : 22mn 46s
Bit rate : 34.5 Kbps
Count of elements : 370
Stream size : 5.61 MiB (0%)
Title : Portuguese
Language : Portuguese
Default : No
Forced : No

Text #7
ID : 10
Format : PGS
Codec ID : S_HDMV/PGS
Codec ID/Info : Picture based subtitle format used on BDs/HD-DVDs
Duration : 22mn 53s
Bit rate : 28.9 Kbps
Count of elements : 405
Stream size : 4.73 MiB (0%)
Title : Russian
Language : Russian
Default : Yes
Forced : Yes

Text #8
ID : 11
Format : PGS
Codec ID : S_HDMV/PGS
Codec ID/Info : Picture based subtitle format used on BDs/HD-DVDs
Duration : 21mn 40s
Bit rate : 22.3 Kbps
Count of elements : 342
Stream size : 3.45 MiB (0%)
Title : Chinese
Language : Chinese
Default : No
Forced : No

Text #9
ID : 12
Format : PGS
Codec ID : S_HDMV/PGS
Codec ID/Info : Picture based subtitle format used on BDs/HD-DVDs
Duration : 21mn 30s
Bit rate : 22.1 Kbps
Count of elements : 394
Stream size : 3.39 MiB (0%)
Title : Japanese
Language : Japanese
Default : No
Forced : No

Text #10
ID : 13
Format : PGS
Muxing mode : zlib
Codec ID : S_HDMV/PGS
Codec ID/Info : Picture based subtitle format used on BDs/HD-DVDs
Duration : 22mn 36s
Bit rate : 9 795 bps
Count of elements : 307
Stream size : 1.58 MiB (0%)
Title : Hebrew
Language : Hebrew
Default : No
Forced : No
Video: MPEG4 Video (H264) 1920x1080 23.976fps [V: h264 high L4.1, yuv420p, 1920x1080 [default,forced]]
Audio: DTS 48000Hz 6ch 6912kbps [A: Japanese DTS-HD MA [jpn] (dts-hd ma, 48000 Hz, 5.1, s24) [default,forced]]
Audio: PCM 48000Hz stereo 2304kbps [A: Japanese LPCM [jpn] (pcm_s24le, 48000 Hz, 2 channels, s24, 2304 kb/s)]
Subtitle [S: English [eng] (pgs)]
Subtitle [S: Spanish [spa] (pgs)]
Subtitle [S: French [fre] (pgs)]
Subtitle [S: German [ger] (pgs)]
Subtitle [S: Italian [ita] (pgs)]
Subtitle [S: Portuguese [por] (pgs)]
Subtitle [S: Russian [rus] (pgs) [default,forced]]
Subtitle [S: Chinese [chi] (pgs)]
Subtitle [S: Japanese [jpn] (pgs)]
Subtitle [S: Hebrew [heb] (pgs)]
Subtitle [S: Forced Subtitles (auto)]
Subtitle: UTF-8 [S: No subtitles]
<a href="viewtopic.php?t=5118105" class="postLink">4839736</a>: BDRemux, 1080p.
</div>
<a href="viewtopic.php?p=71497431#71497431" class="postLink">!</a>

 ·  , , FAQ-
:  [ 27--2016 20:30 ]

  

.torrent

.torrent 8 KB


: 5.85 GB
(hash) : 3ad80f7b6e816038dec2ada5633f737307915b4b
:
··
...

Aoi Tamago . !

!