Скачать через торрент музыку VA - Movie Love Songs - 2005, FLAC бесплатно без регистрации torrent

Если у вас наблюдаются проблемы со скриншотами, переходом по ссылками, скачиванием торрентов - проблемы в блокировщике рекламы AdBlock. #хорошегоДня!


Статистика раздачи
Размер:  256 MB   |    Зарегистрирован:  11 месяцев   |    .torrent скачан:  27 раз   |   
Раздают:  1  
   
Загрузка...
 
Автор Сообщение

Galfimbul

avatar Galfimbul


.<span class="post-font-serif1">Various Artists
<span class="post-font-serif1">Movie Love Songs</span></span>.Название альбома: Movie Love Songs
Жанр: Score, Rock, Funk / Soul, Pop, Classical, Stage & Screen, Rock & Roll, Vocal
Год выпуска диска: 2005
Год выпуска фильма: 1960 - 2002
Страна-производитель диска: UK
Издатель (лейбл): Sunday Express
Номер по каталогу: none
Аудиокодек: FLAC (*.flac)
Тип рипа: image+.cue
Битрейт аудио: lossless
Продолжительность: 00:52:45
Источник: собственный рип
Наличие сканов в содержимом раздачи: да 600 dpi.
.
.Треклист:

<span class="post-font-serif1">01. The Drifters - Unchained Melody (from Ghost).
02. The Troggs - Love Is All Around (from Four Weddings and a Funeral).
03. The Shirelles - Will You Still Love Me Tomorrow (from Bridget Jones’s Diary).
04. B.J. Thomas - Raindrops Keep Falling on My Head (from Butch Cassidy and the Sundance Kid).
05. Ben E. King - Stand by Me (from Stand by Me).
06. Eva Cassidy - Songbird (from Love Actually).
07. Maurice Williams & The Zodiacs - Stay (from Dirty Dancing).
08. Jean-Bernard Marie - Bach - Goldberg Variations (from The English Patient).
09. Jean-Bernard Marie - Satie - Gnossienne No. 1 (from Chocolat).
10. London Festival Orchestra - Mozart - Clarinet Concerto in A major (from Out of Africa).
11. London Festival Orchestra - Tchaikovsky - Sleeping Beauty Waltz (from Sleeping Beauty).
12. Baroque Ensemble of Vienna - Pachelbel - Canon (from Ordinary People).
13. Michel Simone - Beethoven - Fur Elise (from Rosemary’s Baby).
14. Michel Simone - Debussy - Clair de lune (from Frankie and Johnny).
15. Michel Simone - Chopin - Nocturne No. 2 (from The Pianist).</span>
Exact Audio Copy V1.1 from 23. June 2015

Отчёт EAC об извлечении, выполненном 30. августа 2016, 22:45

Various / Movie Love Songs

Дисковод: PLEXTOR DVDR PX-712A Adapter: 8 ID: 0

Режим чтения : ДостоверностьИспользование точного потока : ДаОтключение кэша аудио : ДаИспользование указателей C2 : Нет

Коррекция смещения при чтении : 30Способность читать области Lead-in и Lead-out : НетЗаполнение пропущенных сэмплов тишиной : ДаУдаление блоков с тишиной в начале и конце : НетПри вычислениях CRC использовались нулевые сэмплы : ДаИнтерфейс : Установленный внешний ASPI-интерфейс

Выходной формат : Пользовательский кодировщикВыбранный битрейт : 128 kBit/sКачество : ВысокийДобавление ID3-тега : НетУтилита сжатия : C:\Program Files\Exact Audio Copy\FLAC\FLAC.EXEДополнительные параметры : -V -8 -T "Genre=%genre%" -T "Artist=%artist%" -T "Title=%title%" -T "Album=%albumtitle%" -T "Date=%year%" -T "Tracknumber=%tracknr%" -T "Comment=%comment%" %source%

TOC извлечённого CD

Трек | Старт | Длительность | Начальный сектор | Конечный сектор --------------------------------------------------------------------- 1 | 0:00.00 | 3:38.59 | 0 | 16408 2 | 3:38.59 | 2:59.07 | 16409 | 29840 3 | 6:37.66 | 2:36.09 | 29841 | 41549 4 | 9:14.00 | 3:01.08 | 41550 | 55132 5 | 12:15.08 | 2:54.04 | 55133 | 68186 6 | 15:09.12 | 3:43.70 | 68187 | 84981 7 | 18:53.07 | 1:43.32 | 84982 | 92738 8 | 20:36.39 | 3:14.07 | 92739 | 107295 9 | 23:50.46 | 2:52.19 | 107296 | 120214 10 | 26:42.65 | 6:31.31 | 120215 | 149570 11 | 33:14.21 | 4:13.49 | 149571 | 168594 12 | 37:27.70 | 4:16.07 | 168595 | 187801 13 | 41:44.02 | 2:36.12 | 187802 | 199513 14 | 44:20.14 | 4:02.46 | 199514 | 217709 15 | 48:22.60 | 4:22.24 | 217710 | 237383

Характеристики диапазона извлечения и сообщения об ошибках

Выбранный диапазон

Имя файла I:\MOI_RAZDACI\VA_Movie.Love.Songs_2005\VA_Movie.Love.Songs_2005\Various - Movie Love Songs.wav

Пиковый уровень 100.0 % Скорость извлечения 10.0 X Качество диапазона 100.0 % CRC теста DCD0B429 CRC копии DCD0B429 Копирование... OK

Ошибок не произошло

AccurateRip: сводка

Трек 1 отсутствует в базе данныхТрек 2 отсутствует в базе данныхТрек 3 отсутствует в базе данныхТрек 4 отсутствует в базе данныхТрек 5 отсутствует в базе данныхТрек 6 отсутствует в базе данныхТрек 7 отсутствует в базе данныхТрек 8 отсутствует в базе данныхТрек 9 отсутствует в базе данныхТрек 10 отсутствует в базе данныхТрек 11 отсутствует в базе данныхТрек 12 отсутствует в базе данныхТрек 13 отсутствует в базе данныхТрек 14 отсутствует в базе данныхТрек 15 отсутствует в базе данных

Ни одного трека нет в базе AccurateRip

Конец отчёта

---- CUETools DB Plugin V2.1.6

[CTDB TOCID: wVEv7vidSJeZtIx_g4q8zuCJTTg-] foundSubmit result: wVEv7vidSJeZtIx_g4q8zuCJTTg- has been confirmedTrack | CTDB Status 1 | (3/3) Accurately ripped 2 | (3/3) Accurately ripped 3 | (3/3) Accurately ripped 4 | (3/3) Accurately ripped 5 | (3/3) Accurately ripped 6 | (3/3) Accurately ripped 7 | (3/3) Accurately ripped 8 | (3/3) Accurately ripped 9 | (3/3) Accurately ripped 10 | (3/3) Accurately ripped 11 | (3/3) Accurately ripped 12 | (3/3) Accurately ripped 13 | (3/3) Accurately ripped 14 | (3/3) Accurately ripped 15 | (3/3) Accurately ripped

==== Контрольная сумма отчёта E6D5810D54AC303AF31B6BAE390E3D64F48D971B68B4934CA48F2E1758CF134D ====
REM GENRE SoundtrackREM DATE 2005REM DISCID CA0C5D0FREM COMMENT "ExactAudioCopy v1.1"PERFORMER "Various"TITLE "Movie Love Songs"FILE "Various - Movie Love Songs.flac" WAVE TRACK 01 AUDIO TITLE "Unchained Melody (from Ghost)" PERFORMER "The Drifters" INDEX 01 00:00:00 TRACK 02 AUDIO TITLE "Love Is All Around (from Four Weddings and a Funeral)" PERFORMER "The Troggs" INDEX 01 03:38:59 TRACK 03 AUDIO TITLE "Will You Still Love Me Tomorrow (from Bridget Jones’s Diary)" PERFORMER "The Shirelles" INDEX 00 06:37:55 INDEX 01 06:37:66 TRACK 04 AUDIO TITLE "Raindrops Keep Falling on My Head (from Butch Cassidy and the Sundance Kid)" PERFORMER "B.J. Thomas" INDEX 01 09:14:00 TRACK 05 AUDIO TITLE "Stand by Me (from Stand by Me)" PERFORMER "Ben E. King" INDEX 01 12:15:08 TRACK 06 AUDIO TITLE "Songbird (from Love Actually)" PERFORMER "Eva Cassidy" INDEX 01 15:09:12 TRACK 07 AUDIO TITLE "Stay (from Dirty Dancing)" PERFORMER "Maurice Williams & The Zodiacs" INDEX 01 18:53:07 TRACK 08 AUDIO TITLE "Bach - Goldberg Variations (from The English Patient)" PERFORMER "Jean-Bernard Marie" INDEX 01 20:36:39 TRACK 09 AUDIO TITLE "Satie - Gnossienne No. 1 (from Chocolat)" PERFORMER "Jean-Bernard Marie" INDEX 01 23:50:46 TRACK 10 AUDIO TITLE "Mozart - Clarinet Concerto in A major (from Out of Africa)" PERFORMER "London Festival Orchestra" INDEX 01 26:42:65 TRACK 11 AUDIO TITLE "Tchaikovsky - Sleeping Beauty Waltz (from Sleeping Beauty)" PERFORMER "London Festival Orchestra" INDEX 01 33:14:21 TRACK 12 AUDIO TITLE "Pachelbel - Canon (from Ordinary People)" PERFORMER "Baroque Ensemble of Vienna" INDEX 01 37:27:70 TRACK 13 AUDIO TITLE "Beethoven - Fur Elise (from Rosemary’s Baby)" PERFORMER "Michel Simone" INDEX 01 41:44:02 TRACK 14 AUDIO TITLE "Debussy - Clair de lune (from Frankie and Johnny)" PERFORMER "Michel Simone" INDEX 01 44:20:14 TRACK 15 AUDIO TITLE "Chopin - Nocturne No. 2 (from The Pianist)" PERFORMER "Michel Simone" INDEX 01 48:22:60
-----------------------

DON'T MODIFY THIS FILE

-----------------------

PERFORMER: auCDtect Task Manager, ver. 1.5.1RC6 build 1.5.1.7Copyright (c) 2008-2010 y-soft. All rights reservedhttp://y-soft.org

ANALYZER: auCDtect: CD records authenticity detector, version 0.8.2Copyright (c) 2004 Oleg Berngardt. All rights reserved.Copyright (c) 2004 Alexander Djourik. All rights reserved.

FILE: Various - Movie Love Songs.flac Size: 257040684 Hash: EFF16F2EFBAA1BCE5605C3B33A27775A Accuracy: -m0 Conclusion: CDDA 100% Signature: 0E1A06A41E37DD5D59DC2B4C84F20BE5D050AF5D


Трекер:  [ 25-Сен-2016 03:00 ]

  

Скачать .torrent

Размер .torrent файла 11 KB


Размер: 256 MB
Хэш (hash) релиза: 365a1a070a4a1f757a98ddc19381db5fccf916d0

Еще никто не оставлял запись к записи скачать торрент VA - Movie Love Songs - 2005, FLAC . Будь первым!

!Обратная связь