Скачать через торрент Код Квалидеи Qualidea Code бесплатно Аниме Все серии на русском torrent

Если у вас наблюдаются проблемы со скриншотами, переходом по ссылками, скачиванием торрентов - проблемы в блокировщике рекламы AdBlock. #хорошегоДня!


Статистика раздачи
Размер:  5.56 GB   |    Зарегистрирован:  1 год   |    .torrent скачан:  21 раз   |   
Раздают:  1  
   
Загрузка...
 
Автор Сообщение

Galfimbul

avatar Galfimbul


Код Квалидеи / Qualidea Code
Страна: Япония
Год выпуска: 2016 г.
Тип: TV
Жанр: Приключения, экшн, фантастика
Продолжительность: 12 эп. по 25 мин
Русские субтитры: Undokaktyz
Русские субтитры: AOS Team (8-11)
Перевод: Bourbonice
Редактура: Mr. A. Grayson

Режиссер: Кавамура Кэнъити

Студия:

Описание: Действия происходят в альтернативной вселенной, где уже несколько лет человечество ведет войну с «неизвестным» врагом. Когда уже нечего противопоставить против неведомого врага, остается лишь одна надежда: дети, которые в целях безопасности были погружены в глубокий сон и получили различные сверхъестественные способности после пробуждения. С этого времени их основная задача - защита своей страны от «неизвестных» врагов, проникающих через врата в Токийском заливе. Сумеют ли они защитить дорогое в этой войне?

<span class="post-font-sans1">Качество: HDTVRip | Равка: Leopard-Raws Формат: mp4 | Тип Видео: без хардсаба
Видео: х264, 8 bits, 1280x720, 2930 kbps, 23.976 fps, (16:9)
JP - AAC, 192 kbps, 48.0 KHz, 2 ch Язык Японский</span>
01. Surviving World Gloria
02. Deep Blue Caricature
03. Silent Aria
04. Canary in the Coal Mine
05. The Little Princess`s Regalia
06. Memoria of Salvation
07. Rescue Paranoia
08. Inverse Qualia
09. Jailbreak Idea
10. Compound Note Folklore
11. Dipole Familia
12. Qualidea of the Radiant World
Общее
Полное имя : D:\[Leopard-Raws]\[Leopard-Raws] Qualidea Code\[Leopard-Raws] Qualidea Code - 01 RAW (BS11 1280x720 x264 AAC).mp4
Формат : MPEG-4
Профиль формата : Base Media
Идентификатор кодека : isom
Размер файла : 536 Мбайт
Продолжительность : 23 м.
Режим общего битрейта : Переменный
Общий поток : 3125 Кбит/сек
Дата кодирования : UTC 2016-07-10 09:20:25
Дата пометки : UTC 2016-07-10 09:20:25

Видео
Идентификатор : 1
Формат : AVC
Формат/Информация : Advanced Video Codec
Профиль формата : High@L4.1
Параметр CABAC формата : Да
Параметр ReFrames формата : 4 кадра
Идентификатор кодека : avc1
Идентификатор кодека/Информация : Advanced Video Coding
Продолжительность : 23 м.
Битрейт : 2930 Кбит/сек
Максимальный битрейт : 37,3 Мбит/сек
Ширина : 1280 пикселей
Высота : 720 пикселей
Соотношение сторон : 16:9
Режим частоты кадров : Постоянный
Частота кадров : 23,976 кадра/сек
Цветовое пространство : YUV
Субдискретизация насыщенности : 4:2:0
Битовая глубина : 8 бит
Тип развёртки : Прогрессивная
Бит/(Пиксели*Кадры) : 0.133
Размер потока : 503 Мбайт (94%)
Заголовок : 264:fps=23.976@GPAC0.5.1-DEV-rev4929
Библиотека кодирования : x264 core 129 r2245+729M 1a52e03
Настройки программы : cabac=1 / ref=4 / deblock=1:1:-1 / analyse=0x3:0x113 / me=umh / subme=9 / psy=1 / fade_compensate=0.00 / psy_rd=1.00:0.00 / mixed_ref=1 / me_range=24 / chroma_me=1 / trellis=2 / 8x8dct=1 / cqm=0 / deadzone=21,11 / fast_pskip=1 / chroma_qp_offset=-2 / threads=8 / lookahead_threads=1 / sliced_threads=0 / nr=0 / decimate=1 / interlaced=0 / bluray_compat=0 / constrained_intra=0 / fgo=0 / bframes=9 / b_pyramid=2 / b_adapt=2 / b_bias=0 / direct=1 / weightb=1 / open_gop=0 / weightp=2 / keyint=240 / keyint_min=24 / scenecut=40 / intra_refresh=0 / rc=crf / mbtree=0 / crf=17.5 / qcomp=0.72 / qpmin=0 / qpmax=69 / qpstep=4 / ip_ratio=1.40 / pb_ratio=1.30 / aq=1:0.85
Дата кодирования : UTC 2016-07-10 09:20:25
Дата пометки : UTC 2016-07-10 09:20:35
Основные цвета : BT.709
Характеристики трансфера : BT.709
Коэффициенты матрицы : BT.709

Аудио
Идентификатор : 2
Формат : AAC
Формат/Информация : Advanced Audio Codec
Профиль формата : LC
Идентификатор кодека : 40
Продолжительность : 23 м.
Вид битрейта : Переменный
Битрейт : 192 Кбит/сек
Максимальный битрейт : 247 Кбит/сек
Каналы : 2 канала
Расположение каналов : Front: L R
Частота : 48,0 КГц
Метод сжатия : С потерями
Размер потока : 32,9 Мбайт (6%)
Язык : Japanese
Дата кодирования : UTC 2016-07-09 19:17:41
Дата пометки : UTC 2016-07-10 09:20:35


Обновите торент файл, добавлена 8-11я серии

Трекер:  [ 24-Сен-2016 11:00 ]

  

Скачать .torrent

Размер .torrent файла 16 KB


Размер: 5.56 GB
Хэш (hash) релиза: 976ad49654048d4a77565b0257a5d886058a382e
Подписка на обновления:

Торренты, похожие на Код Квалидеи Qualidea Code скачать торрент

Форум Название Автор Размер S L Добавлен
Аниме | HD Rips ·· Код Квалидеи / Qualidea Code (Кавамура Кэнъити) [TV] [12 из 12] [Без хардсаба] [JAP+SUB] [2016, приключения, драма, фэнтези, BDRip] [1080p] Galfimbul 3103573592728.9 GB 0 0 1500238961

00:02

17-Июл-17

Аниме | HD Rips ·· Код Квалидеи / Qualidea Code (Кавамура Кэнъити) [TV] [12 из 12] [без хардсаба] [JAP+SUB] [2016, фэнтези, драма, BDRip] [720p] Galfimbul 83508927837.78 GB 0 0 1497645062

23:31

16-Июн-17

Аниме | Rips ·· Код Квалидеи / Qualidea Code (Кавамура Кэнъити) [TV] [12 из 12] [без хардсаба] [RUS(ext), JAP+SUB] [2016, фэнтези, драма, BDRip] [720p] Galfimbul 91718219898.54 GB 0 0 1497645053

23:30

16-Июн-17

Аниме | Rips ·· Код Квалидеи / Qualidea Code [TV] [12 из 12] [Без хардсаба] [RUS(ext), JAP, SUB] [2016 г., Приключения, Экшен, Магия, Сверхъестественное, HDTVRip] [720p] Galfimbul 77835204867.25 GB 0 0 1476078803

08:53

10-Окт-16

Аниме | Rips ·· Код Квалидеи / Qualidea Code [TV] [12 из 12] [Без хардсаба] [RUS(ext), JAP, SUB] [2016 г., Приключения, Экшен, Магия, Сверхъестественное, HDTVRip] [720p] Galfimbul 77142123287.18 GB 0 0 1476025701

18:08

9-Окт-16

Аниме | HD Rips ·· Код Квалидеи / Qualidea Code (Кавамура Кэнъити) [TV] [12 из 12] [Без хардсаба] [JAP+SUB] [2016 г., приключения, экшн, фантастика HDTVRip] [720p] Galfimbul 65353222816.09 GB 0 0 1475013858

01:04

28-Сен-16

Аниме | Rips ·· Код Квалидеи / Qualidea Code [TV] [12 из 12] [Без хардсаба] [RUS(ext), JAP, SUB] [2016 г., Приключения, Экшен, Магия, Сверхъестественное, HDTVRip] [720p] Galfimbul 75755953037.06 GB 0 0 1474903973

18:32

26-Сен-16

Аниме | Rips ·· Код Квалидеи / Qualidea Code [TV] [01-11 из 12] [Без хардсаба] [RUS(ext), JAP, SUB] [2016 г., Приключения, Экшен, Магия, Сверхъестественное, HDTVRip] [720p] Galfimbul 69015225046.43 GB 0 0 1474334671

04:24

20-Сен-16

Аниме | Rips ·· Код Квалидеи / Qualidea Code [TV] [01-10 из 12] [Без хардсаба] [RUS(ext), JAP, SUB] [2016 г., Приключения, Экшен, Магия, Сверхъестественное, HDTVRip] [720p] Galfimbul 63038150235.87 GB 0 0 1473857671

15:54

14-Сен-16

Аниме | Rips ·· Код Квалидеи / Qualidea Code [TV] [01-09 из 12] [Без хардсаба] [RUS(ext), JAP, SUB] [2016 г., Приключения, Экшен, Магия, Сверхъестественное, HDTVRip] [720p] Galfimbul 56839629525.29 GB 0 0 1473045691

06:21

5-Сен-16

Аниме | HD Rips ·· Код Квалидеи / Qualidea Code (Кавамура Кэнъити) [TV] [7 из 12] [Без хардсаба] [JAP+SUB] [2016 г., приключения, экшн, фантастика HDTVRip] [720p] Galfimbul 43565256274.06 GB 0 0 1472981529

12:32

4-Сен-16

Аниме | Rips ·· Код Квалидеи / Qualidea Code [TV] [01-08 из 12] [Без хардсаба] [RUS(ext), JAP, SUB] [2016 г., Приключения, Экшен, Магия, Сверхъестественное, HDTVRip] [720p] Galfimbul 50848738644.74 GB 0 0 1472431913

03:51

29-Авг-16

Аниме | Rips ·· Код Квалидеи / Qualidea Code [TV] [01-07 из 12] [Без хардсаба] [RUS(ext), JAP, SUB] [2016 г., Приключения, Экшен, Магия, Сверхъестественное, HDTVRip] [720p] Galfimbul 45354206624.22 GB 0 0 1471871431

16:10

22-Авг-16

Аниме | Rips ·· Код Квалидеи / Qualidea Code [TV] [01-06 из 12] [Без хардсаба] [RUS(ext), JAP, SUB] [2016 г., Приключения, Экшен, Магия, Сверхъестественное, HDTVRip] [720p] Galfimbul 38561734453.59 GB 0 0 1471404179

06:22

17-Авг-16

Аниме | HD Rips ·· Код Квалидеи / Qualidea Code (Кавамура Кэнъити) [TV] [5 из 12] [Без хардсаба] [JAP+SUB] [2016 г., приключения, экшн, фантастика HDTVRip] [720p] Galfimbul 27144542112.53 GB 0 0 1471168651

12:57

14-Авг-16

Аниме | Rips ·· Код Квалидеи / Qualidea Code [TV] [01-05 из 12] [Без хардсаба] [RUS(ext), JAP, SUB] [2016 г., Приключения, Экшен, Магия, Сверхъестественное, HDTVRip] [720p] Galfimbul 31653673792.95 GB 0 0 1470761791

19:56

9-Авг-16

Аниме | HD Rips ·· Код Квалидеи / Qualidea Code (Кавамура Кэнъити) [TV] [4 из 12] [Без хардсаба] [JAP+SUB] [2016 г., приключения, экшн, фантастика HDTVRip] [720p] Galfimbul 21960232782.05 GB 0 0 1470553135

09:58

7-Авг-16

Аниме | Rips ·· Код Квалидеи / Qualidea Code [TV] [01-04 из 12] [Без хардсаба] [RUS(ext), JAP, SUB] [2016 г., Приключения, Экшен, Магия, Сверхъестественное, HDTVRip] [720p] Galfimbul 24042711682.24 GB 0 0 1470100967

04:22

2-Авг-16

Аниме | HD Rips ·· Код Квалидеи / Qualidea Code (Кавамура Кэнъити) [TV] [3 из 12] [Без хардсаба] [JAP+SUB] [2016 г., приключения, экшн, фантастика HDTVRip] [720p] Galfimbul 16020554561.49 GB 0 0 1469769742

08:22

29-Июл-16

Еще никто не оставлял запись к записи скачать торрент Код Квалидеи Qualidea Code . Будь первым!

!Обратная связь