Скачать через торрент музыку VA - Hollywood Greats - 2004, FLAC бесплатно без регистрации torrent

Если у вас наблюдаются проблемы со скриншотами, переходом по ссылками, скачиванием торрентов - проблемы в блокировщике рекламы AdBlock. #хорошегоДня!


Статистика раздачи
Размер:  362 MB   |    Зарегистрирован:  1 год   |    .torrent скачан:  43 раза   |   
Раздают:  1  
   
Загрузка...
 
Автор Сообщение

Galfimbul

avatar Galfimbul


.<span class="post-font-serif1">Various Artists
Hollywood Greats</span>.Название альбома: Hollywood Greats
Жанр: Score, Electronic, Funk / Soul, Pop, Stage & Screen,
House, Vocal, Disco, Downtempo, Ballad
Год выпуска диска: 2004
Год выпуска фильма: 1963-1990
Страна-производитель диска: UK
Издатель (лейбл): Trinity Mirror
Номер по каталогу: SMHGCD01
Аудиокодек: FLAC (*.flac)
Тип рипа: image+.cue
Битрейт аудио: lossless
Продолжительность: 00:56:22
Источник: собственный рип
Наличие сканов в содержимом раздачи: да - 600 dpi.
.Треклист:

<span class="post-font-serif1">01. The Righteous Brothers - Unchained Melody (album version) (Ghost).
02. Irene Cara - Flashdance (Flashdance).
03. Andy Williams - Can't Take My Eyes Off You (Bridget Jones' Diary).
04. Kenny Loggins - Footloose (Footloose).
05. Snap! - The Power (Bruce Almighty).
06. James Brown - Papa's Got a Brand New Bag (2 Weeks Notice).
07. Bill Withers - Ain't No Sunshine (Notting Hill).
08. The Shirelles - Will You Still Love Me Tomorrow (Dirty Dancing).
09. Gloria Gaynor - I Will Survive (Four Weddings).
10. Roy Orbison - Dream (You've Got Mail).
Bonus
11. Rob Rainsbury - Agony.
12. Scanner - Slow Down.
13. The Ponies - Suspend.
14. Candide - Running.
15. The Touts - Master Jazz Thing.</span>
[i]<span class="post-font-serif1">1 from 'Ghost'
Frank Music Corp. ℗ 1966 Universal Records, a Division of UMG Recordings, Inc.
Licensed courtesy of Universal Strategic Marketing. Taken from the album 'The Collection'

3 from 'Bridget Jones' Diary'
Windswept Pacific Music Ltd./EMI Music Publishing Ltd. ℗ 1967 Sony Music Entertainment Inc.

4 from 'Footloose'
Sony/ATV Music Publishing Ltd./Famous Music/BMG Music Publishing Ltd.
℗ 1984 Sony Music Entertainment Inc.

5 from 'Bruce Almighty'
Hanseatic/House of Fun Music. Licensed courtesy of IN-MOTION AG.
℗ 1990 Anzilotti & Munzing

6 from 'Two Weeks Notice'
Copyright Control. ℗ 1965 UMG Recordings Inc., admin. by Unichappell Music Inc.
Licensed courtesy of Universal Strategic Marketing. Taken from the album 'Godfather of Soul'

7 from 'Notting Hill'
EMI Music Publishing Ltd. ℗ 1972 Sony Music Entertainment Inc.

8 from 'Dirty Dancing'
Screen Gems/EMI Music Ltd. ℗ HHO Licensing Ltd.

9 from 'Four Weddings and a Funeral'
Universal Music Publishing ℗ OVC Ltd.

10 from 'You've Got Mail'
Warner Music Corp. ℗ 1963 Monument Records

Bonus Section - Breaking Acts
1, 2, 4, 5 *Copyright Control

This album is ℗ and © 2004 Sunday Mirror

This compilation is ℗ and © 2004 Trinity Mirror

Given away free with the Sunday Mirror newspaper.

Tracks in the bonus section are numbered 1 to 5 on the sleeve but are actually tracks 11 to 15 on the CD.

Released in cardsleeve</span></span>
Exact Audio Copy V1.1 from 23. June 2015

Отчёт EAC об извлечении, выполненном 28. августа 2016, 0:06

Various / Hollywood Greats

Дисковод: PLEXTOR DVDR PX-712A Adapter: 8 ID: 0

Режим чтения : ДостоверностьИспользование точного потока : ДаОтключение кэша аудио : ДаИспользование указателей C2 : Нет

Коррекция смещения при чтении : 30Способность читать области Lead-in и Lead-out : НетЗаполнение пропущенных сэмплов тишиной : ДаУдаление блоков с тишиной в начале и конце : НетПри вычислениях CRC использовались нулевые сэмплы : ДаИнтерфейс : Установленный внешний ASPI-интерфейс

Выходной формат : Пользовательский кодировщикВыбранный битрейт : 128 kBit/sКачество : ВысокийДобавление ID3-тега : НетУтилита сжатия : C:\Program Files\Exact Audio Copy\FLAC\FLAC.EXEДополнительные параметры : -V -8 -T "Genre=%genre%" -T "Artist=%artist%" -T "Title=%title%" -T "Album=%albumtitle%" -T "Date=%year%" -T "Tracknumber=%tracknr%" -T "Comment=%comment%" %source%

TOC извлечённого CD

Трек | Старт | Длительность | Начальный сектор | Конечный сектор --------------------------------------------------------------------- 1 | 0:00.00 | 3:38.50 | 0 | 16399 2 | 3:38.50 | 3:55.55 | 16400 | 34079 3 | 7:34.30 | 3:12.34 | 34080 | 48513 4 | 10:46.64 | 3:41.53 | 48514 | 65141 5 | 14:28.42 | 3:47.72 | 65142 | 82238 6 | 18:16.39 | 4:19.01 | 82239 | 101664 7 | 22:35.40 | 2:05.50 | 101665 | 111089 8 | 24:41.15 | 2:38.20 | 111090 | 122959 9 | 27:19.35 | 4:51.33 | 122960 | 144817 10 | 32:10.68 | 4:11.45 | 144818 | 163687 11 | 36:22.38 | 4:59.24 | 163688 | 186136 12 | 41:21.62 | 5:56.56 | 186137 | 212892 13 | 47:18.43 | 4:24.09 | 212893 | 232701 14 | 51:42.52 | 2:40.38 | 232702 | 244739 15 | 54:23.15 | 1:59.23 | 244740 | 253687

Характеристики диапазона извлечения и сообщения об ошибках

Выбранный диапазон

Имя файла I:\MOI_RAZDACI\VA_Hollywood,Greats_2004\VA_Hollywood,Greats_2004\Various - Hollywood Greats.wav

Пиковый уровень 99.9 % Скорость извлечения 7.7 X Качество диапазона 100.0 % CRC теста 4F8FC9C0 CRC копии 4F8FC9C0 Копирование... OK

Ошибок не произошло

AccurateRip: сводка

Трек 1 отсутствует в базе данныхТрек 2 отсутствует в базе данныхТрек 3 отсутствует в базе данныхТрек 4 отсутствует в базе данныхТрек 5 отсутствует в базе данныхТрек 6 отсутствует в базе данныхТрек 7 отсутствует в базе данныхТрек 8 отсутствует в базе данныхТрек 9 отсутствует в базе данныхТрек 10 отсутствует в базе данныхТрек 11 отсутствует в базе данныхТрек 12 отсутствует в базе данныхТрек 13 отсутствует в базе данныхТрек 14 отсутствует в базе данныхТрек 15 отсутствует в базе данных

Ни одного трека нет в базе AccurateRip

Конец отчёта

---- CUETools DB Plugin V2.1.6

[CTDB TOCID: Hq8lhHzyb0tYTOc_olZs92BBocI-] foundSubmit result: Hq8lhHzyb0tYTOc_olZs92BBocI- has been confirmedTrack | CTDB Status 1 | (7/7) Accurately ripped 2 | (7/7) Accurately ripped 3 | (7/7) Accurately ripped 4 | (7/7) Accurately ripped 5 | (7/7) Accurately ripped 6 | (7/7) Accurately ripped 7 | (7/7) Accurately ripped 8 | (7/7) Accurately ripped 9 | (7/7) Accurately ripped 10 | (7/7) Accurately ripped 11 | (7/7) Accurately ripped 12 | (7/7) Accurately ripped 13 | (7/7) Accurately ripped 14 | (7/7) Accurately ripped 15 | (7/7) Accurately ripped

==== Контрольная сумма отчёта 5262D2BC26BCEFF707C49CF33EC1E39D8F23AD7C2DFADA13FFDEFA244660E227 ====
REM GENRE SoundtrackREM DATE 2004REM DISCID C90D360FREM COMMENT "ExactAudioCopy v1.1"PERFORMER "Various"TITLE "Hollywood Greats"FILE "Various - Hollywood Greats.flac" WAVE TRACK 01 AUDIO TITLE "Unchained Melody (album version) (Ghost)" PERFORMER "The Righteous Brothers" FLAGS DCP INDEX 01 00:00:00 TRACK 02 AUDIO TITLE "Flashdance... What a Feeling" PERFORMER "Irene Cara" FLAGS DCP INDEX 00 03:36:65 INDEX 01 03:38:50 TRACK 03 AUDIO TITLE "Can't Take My Eyes Off You (Bridget Jones' Diary)" PERFORMER "Andy Williams" FLAGS DCP INDEX 00 07:32:30 INDEX 01 07:34:30 TRACK 04 AUDIO TITLE "Footloose (Footloose)" PERFORMER "Kenny Loggins" FLAGS DCP INDEX 00 10:45:11 INDEX 01 10:46:64 TRACK 05 AUDIO TITLE "The Power (Bruce Almighty)" PERFORMER "Snap!" FLAGS DCP INDEX 00 14:26:51 INDEX 01 14:28:42 TRACK 06 AUDIO TITLE "Papa's Got a Brand New Bag (2 Weeks Notice)" PERFORMER "James Brown" FLAGS DCP INDEX 00 18:14:44 INDEX 01 18:16:39 TRACK 07 AUDIO TITLE "Ain't No Sunshine (Notting Hill)" PERFORMER "Bill Withers" FLAGS DCP INDEX 00 22:34:04 INDEX 01 22:35:40 TRACK 08 AUDIO TITLE "Will You Still Love Me Tomorrow (Dirty Dancing)" PERFORMER "The Shirelles" FLAGS DCP INDEX 00 24:39:22 INDEX 01 24:41:15 TRACK 09 AUDIO TITLE "I Will Survive (Four Weddings)" PERFORMER "Gloria Gaynor" FLAGS DCP INDEX 00 27:17:57 INDEX 01 27:19:35 TRACK 10 AUDIO TITLE "Dream (You've Got Mail)" PERFORMER "Roy Orbison" FLAGS DCP INDEX 00 32:08:74 INDEX 01 32:10:68 TRACK 11 AUDIO TITLE "Agony" PERFORMER "Rob Rainsbury" FLAGS DCP INDEX 00 36:20:61 INDEX 01 36:22:38 TRACK 12 AUDIO TITLE "Slow Down" PERFORMER "Scanner" FLAGS DCP INDEX 00 41:20:03 INDEX 01 41:21:62 TRACK 13 AUDIO TITLE "Suspend" PERFORMER "The Ponies" FLAGS DCP INDEX 00 47:16:59 INDEX 01 47:18:43 TRACK 14 AUDIO TITLE "Running" PERFORMER "Candide" FLAGS DCP INDEX 00 51:40:69 INDEX 01 51:42:52 TRACK 15 AUDIO TITLE "Master Jazz Thing" PERFORMER "The Touts" FLAGS DCP INDEX 00 54:21:35 INDEX 01 54:23:15
-----------------------

DON'T MODIFY THIS FILE

-----------------------

PERFORMER: auCDtect Task Manager, ver. 1.5.1RC6 build 1.5.1.7Copyright (c) 2008-2010 y-soft. All rights reservedhttp://y-soft.org

ANALYZER: auCDtect: CD records authenticity detector, version 0.8.2Copyright (c) 2004 Oleg Berngardt. All rights reserved.Copyright (c) 2004 Alexander Djourik. All rights reserved.

FILE: Various - Hollywood Greats.flac Size: 363686281 Hash: 0DC7CBE321E91B1B38D7B5B3EC6B8DFA Accuracy: -m0 Conclusion: CDDA 100% Signature: C58D207CCAABCC44559DD36140E474A381A6FE6D


Трекер:  [ 20-Сен-2016 10:00 ]

  

Скачать .torrent

Размер .torrent файла 15 KB


Размер: 362 MB
Хэш (hash) релиза: 4c651957053431d595c27c6c9549d63d815b0d90

Еще никто не оставлял запись к записи скачать торрент VA - Hollywood Greats - 2004, FLAC . Будь первым!

!Обратная связь