Скачать через торрент С этим клубом точно что-то не так! Kono Bijutsubu ni wa Mondai ga Aru! бесплатно Аниме Все серии на русском torrent

Если у вас наблюдаются проблемы со скриншотами, переходом по ссылками, скачиванием торрентов - проблемы в блокировщике рекламы AdBlock. #хорошегоДня!


 
Автор Сообщение

Galfimbul

avatar Galfimbul


С этим клубом точно что-то не так! / Kono Bijutsubu ni wa Mondai ga Aru!
Страна: Япония
Год выпуска: 2016 г.
Тип: TV
Жанр: Комедия, повседневность, школа, романтика
Продолжительность: 12 эп. по 25 мин
Русские субтитры: T_T subs
Переводчик/Оформление: alkopone
Редактор: Rhododendron

Режиссер: Ойкава Кэй

Студия:

Описание: Субару Итимаки великолепно рисует в манга-стиле, но хочет лишь нарисовать идеальную двухмерную невесту. Колетт вечно создает для других неприятности своим озорством, Мидзуки Усами и президент художественного клуба обычной старшей школы, вечно спящий на уроках, тоже вовсю стараются не пропустить свою "золотую пору юности". К чему приведут старания Мидзуки сделать с такой командой выдающийся арт-клуб?

<span class="post-font-sans1">Качество: HDTVRip | Равка: Leopard-Raws Формат: mp4 | Тип Видео: без хардсаба
Видео: х264, 8 bits, 1280x720, 1775 kbps, 23.976 fps, (16:9)
JP - AAC, 192 kbps, 48.0 KHz, 2 ch Язык Японский</span>
01. These People Have Problems / Goodbye, Uchimaki-kun
02. Case of the Lost Child`s Love Letter Murder
03. Where Is the Thing I`m Looking For? / Short Bob / Indirect Kiss
04. Welcome to a Little Walk
05. Dove Train
06. The Curious Cute Transfer Girl
07. Our First Joint Task...? / Master Imari
08. Secret Treasure Hunt!
09. The Grimoire Stroll Returns
10. Nostalgic Kaori Cram School
11. Unity! Empty Cans! Cultural Festival!
Общее
Полное имя : D:\[Leopard-Raws]\[Leopard-Raws] Kono Bijutsubu ni wa Mondai ga Aru!\[Leopard-Raws] Kono Bijutsubu ni wa Mondai ga Aru! - 01 RAW (TBS 1280x720 x264 AAC).mp4
Формат : MPEG-4
Профиль формата : Base Media
Идентификатор кодека : isom
Размер файла : 345 Мбайт
Продолжительность : 24 м.
Режим общего битрейта : Переменный
Общий поток : 1971 Кбит/сек
Дата кодирования : UTC 2016-07-08 03:04:30
Дата пометки : UTC 2016-07-08 03:04:30

Видео
Идентификатор : 1
Формат : AVC
Формат/Информация : Advanced Video Codec
Профиль формата : High@L4.1
Параметр CABAC формата : Да
Параметр ReFrames формата : 4 кадра
Идентификатор кодека : avc1
Идентификатор кодека/Информация : Advanced Video Coding
Продолжительность : 24 м.
Битрейт : 1775 Кбит/сек
Максимальный битрейт : 19,0 Мбит/сек
Ширина : 1280 пикселей
Высота : 720 пикселей
Соотношение сторон : 16:9
Режим частоты кадров : Постоянный
Частота кадров : 23,976 кадра/сек
Цветовое пространство : YUV
Субдискретизация насыщенности : 4:2:0
Битовая глубина : 8 бит
Тип развёртки : Прогрессивная
Бит/(Пиксели*Кадры) : 0.080
Размер потока : 311 Мбайт (90%)
Заголовок : 264:fps=23.976@GPAC0.5.1-DEV-rev4929
Библиотека кодирования : x264 core 129 r2245+729M 1a52e03
Настройки программы : cabac=1 / ref=4 / deblock=1:1:-1 / analyse=0x3:0x113 / me=umh / subme=9 / psy=1 / fade_compensate=0.00 / psy_rd=1.00:0.00 / mixed_ref=1 / me_range=24 / chroma_me=1 / trellis=2 / 8x8dct=1 / cqm=0 / deadzone=21,11 / fast_pskip=1 / chroma_qp_offset=-2 / threads=8 / lookahead_threads=1 / sliced_threads=0 / nr=0 / decimate=1 / interlaced=0 / bluray_compat=0 / constrained_intra=0 / fgo=0 / bframes=9 / b_pyramid=2 / b_adapt=2 / b_bias=0 / direct=1 / weightb=1 / open_gop=0 / weightp=2 / keyint=240 / keyint_min=24 / scenecut=40 / intra_refresh=0 / rc=crf / mbtree=0 / crf=17.5 / qcomp=0.72 / qpmin=0 / qpmax=69 / qpstep=4 / ip_ratio=1.40 / pb_ratio=1.30 / aq=1:0.85
Дата кодирования : UTC 2016-07-08 03:04:30
Дата пометки : UTC 2016-07-08 03:04:34
Основные цвета : BT.709
Характеристики трансфера : BT.709
Коэффициенты матрицы : BT.709

Аудио
Идентификатор : 2
Формат : AAC
Формат/Информация : Advanced Audio Codec
Профиль формата : LC
Идентификатор кодека : 40
Продолжительность : 24 м.
Вид битрейта : Переменный
Битрейт : 192 Кбит/сек
Максимальный битрейт : 227 Кбит/сек
Каналы : 2 канала
Расположение каналов : Front: L R
Частота : 48,0 КГц
Метод сжатия : С потерями
Размер потока : 33,6 Мбайт (10%)
Язык : Japanese
Дата кодирования : UTC 2016-07-07 18:38:30
Дата пометки : UTC 2016-07-08 03:04:34


Обновите торент файл, добавлена 11я серия

Еще никто не оставлял запись к записи скачать торрент С этим клубом точно что-то не так! Kono Bijutsubu ni wa Mondai ga Aru! . Будь первым!

!Обратная связь