Скачать через торрент музыку VA - Hits From The Flicks - 2004, FLAC бесплатно без регистрации torrent

Если у вас наблюдаются проблемы со скриншотами, переходом по ссылками, скачиванием торрентов - проблемы в блокировщике рекламы AdBlock. #хорошегоДня!


 
Автор Сообщение

Galfimbul

avatar Galfimbul


.<span class="post-font-serif1">Various Artists
[b]Hits From The Flicks[/b]</span>.Название альбома: Hits From The Flicks
Жанр: Score, Rock, Funk / Soul, Pop, RnB/Swing, Glam, Soul, Ballad, Disco
Год выпуска диска: 2004
Год выпуска фильма: 1964-2000
Страна-производитель диска: Europe
Издатель (лейбл): Spin Music, The Sun
Номер по каталогу: SM/SUN002GB
Аудиокодек: FLAC (*.flac)
Тип рипа: image+.cue
Битрейт аудио: lossless
Продолжительность: 00:32:40
Источник: собственный рип
Наличие сканов в содержимом раздачи: да 600 dpi.
.
.Треклист:

<span class="post-font-serif1">01. Hot Chocolate - You Sexy Thing.
02. Destiny’s Child - Independent Women, Part 1.
03. Bill Withers - Ain't No Sunshine.
04. Van Morrison - Brown Eyed Girl.
05. T. Rex - I Love to Boogie.
06. Celine Dion & Clive Griffin - When I Fall in Love.
07. Kelly Rowland - Train on a Track.
08. The Emotions - Best of My Love.
09. Roy Orbison - Oh, Pretty Woman.
10. The O'Jays - Love Train.</span>
Exact Audio Copy V1.1 from 23. June 2015

Отчёт EAC об извлечении, выполненном 30. августа 2016, 21:52

Various / Hits From the Flicks

Дисковод: PLEXTOR DVDR PX-712A Adapter: 8 ID: 0

Режим чтения : ДостоверностьИспользование точного потока : ДаОтключение кэша аудио : ДаИспользование указателей C2 : Нет

Коррекция смещения при чтении : 30Способность читать области Lead-in и Lead-out : НетЗаполнение пропущенных сэмплов тишиной : ДаУдаление блоков с тишиной в начале и конце : НетПри вычислениях CRC использовались нулевые сэмплы : ДаИнтерфейс : Установленный внешний ASPI-интерфейс

Выходной формат : Пользовательский кодировщикВыбранный битрейт : 128 kBit/sКачество : ВысокийДобавление ID3-тега : НетУтилита сжатия : C:\Program Files\Exact Audio Copy\FLAC\FLAC.EXEДополнительные параметры : -V -8 -T "Genre=%genre%" -T "Artist=%artist%" -T "Title=%title%" -T "Album=%albumtitle%" -T "Date=%year%" -T "Tracknumber=%tracknr%" -T "Comment=%comment%" %source%

TOC извлечённого CD

Трек | Старт | Длительность | Начальный сектор | Конечный сектор --------------------------------------------------------------------- 1 | 0:00.00 | 4:04.70 | 0 | 18369 2 | 4:04.70 | 3:39.15 | 18370 | 34809 3 | 7:44.10 | 2:04.03 | 34810 | 44112 4 | 9:48.13 | 3:00.22 | 44113 | 57634 5 | 12:48.35 | 2:14.35 | 57635 | 67719 6 | 15:02.70 | 4:20.73 | 67720 | 87292 7 | 19:23.68 | 3:39.72 | 87293 | 103789 8 | 23:03.65 | 3:39.03 | 103790 | 120217 9 | 26:42.68 | 2:59.47 | 120218 | 133689 10 | 29:42.40 | 2:57.35 | 133690 | 146999

Характеристики диапазона извлечения и сообщения об ошибках

Выбранный диапазон

Имя файла I:\MOI_RAZDACI\VA_Hits.From.the.Flicks_2004\VA_Hits.From.the.Flicks_2004\Various - Hits From the Flicks.wav

Пиковый уровень 99.5 % Скорость извлечения 11.1 X Качество диапазона 100.0 % CRC теста CD5A01EA CRC копии CD5A01EA Копирование... OK

Ошибок не произошло

AccurateRip: сводка

Трек 1 отсутствует в базе данныхТрек 2 отсутствует в базе данныхТрек 3 отсутствует в базе данныхТрек 4 отсутствует в базе данныхТрек 5 отсутствует в базе данныхТрек 6 отсутствует в базе данныхТрек 7 отсутствует в базе данныхТрек 8 отсутствует в базе данныхТрек 9 отсутствует в базе данныхТрек 10 отсутствует в базе данных

Ни одного трека нет в базе AccurateRip

Конец отчёта

---- CUETools DB Plugin V2.1.6

[CTDB TOCID: h9gBVnqokzmtpAdzw_4UkEThxKY-] foundSubmit result: h9gBVnqokzmtpAdzw_4UkEThxKY- has been confirmedTrack | CTDB Status 1 | (7/7) Accurately ripped 2 | (7/7) Accurately ripped 3 | (7/7) Accurately ripped 4 | (7/7) Accurately ripped 5 | (7/7) Accurately ripped 6 | (7/7) Accurately ripped 7 | (7/7) Accurately ripped 8 | (7/7) Accurately ripped 9 | (7/7) Accurately ripped 10 | (7/7) Accurately ripped

==== Контрольная сумма отчёта EAAEF4DDC88B44CFDEBF038FC54E00A0CE24947048C41EE8605CB81BE03B3F04 ====
REM GENRE SoundtrackREM DATE 2004REM DISCID 8407A80AREM COMMENT "ExactAudioCopy v1.1"PERFORMER "Various"TITLE "Hits From the Flicks"FILE "Various - Hits From the Flicks.flac" WAVE TRACK 01 AUDIO TITLE "You Sexy Thing" PERFORMER "Hot Chocolate" INDEX 01 00:00:00 TRACK 02 AUDIO TITLE "Independent Women, Part 1" PERFORMER "Destiny’s Child" INDEX 00 04:04:68 INDEX 01 04:04:70 TRACK 03 AUDIO TITLE "Ain't No Sunshine" PERFORMER "Bill Withers" INDEX 00 07:43:59 INDEX 01 07:44:10 TRACK 04 AUDIO TITLE "Brown Eyed Girl" PERFORMER "Van Morrison" INDEX 00 09:47:16 INDEX 01 09:48:13 TRACK 05 AUDIO TITLE "I Love to Boogie" PERFORMER "T. Rex" INDEX 00 12:47:43 INDEX 01 12:48:35 TRACK 06 AUDIO TITLE "When I Fall in Love" PERFORMER "Celine Dion & Clive Griffin" INDEX 00 15:02:14 INDEX 01 15:02:70 TRACK 07 AUDIO TITLE "Train on a Track" PERFORMER "Kelly Rowland" INDEX 01 19:23:68 TRACK 08 AUDIO TITLE "Best of My Love" PERFORMER "The Emotions" INDEX 00 23:03:25 INDEX 01 23:03:65 TRACK 09 AUDIO TITLE "Oh, Pretty Woman" PERFORMER "Roy Orbison" INDEX 00 26:42:53 INDEX 01 26:42:68 TRACK 10 AUDIO TITLE "Love Train" PERFORMER "The O'Jays" INDEX 00 29:41:33 INDEX 01 29:42:40
-----------------------

DON'T MODIFY THIS FILE

-----------------------

PERFORMER: auCDtect Task Manager, ver. 1.5.1RC6 build 1.5.1.7Copyright (c) 2008-2010 y-soft. All rights reservedhttp://y-soft.org

ANALYZER: auCDtect: CD records authenticity detector, version 0.8.2Copyright (c) 2004 Oleg Berngardt. All rights reserved.Copyright (c) 2004 Alexander Djourik. All rights reserved.

FILE: Various - Hits From the Flicks.flac Size: 220028266 Hash: 7766BB8F239E82C90E0E198F8D999063 Accuracy: -m0 Conclusion: CDDA 100% Signature: AD4FD0687A2339889F8FCCA8974CD8CBAAB4CB00

Еще никто не оставлял запись к записи скачать торрент VA - Hits From The Flicks - 2004, FLAC . Будь первым!

!Обратная связь