Скачать через торрент Живая Любовь! Солнечный Свет!! Love Live! Sunshine!! бесплатно Аниме Все серии на русском torrent

Если у вас наблюдаются проблемы со скриншотами, переходом по ссылками, скачиванием торрентов - проблемы в блокировщике рекламы AdBlock. #хорошегоДня!


 
Автор Сообщение

Galfimbul

avatar Galfimbul


Живая Любовь! Солнечный Свет!! / Love Live! Sunshine!!

Страна: Япония
Год выпуска: 2016 г.
Жанр: Музыка, повседневность, школа
Тип: TV
Продолжительность: 13 эп. по 25 мин.

Режиссер: Sakai Kazuo
Студия: Sunrise

Описание: Старшая женская школа Уранохоши - это частная школа неподалеку от Нумазу и Учиура, префектура Шизуока. Эта маленькая школа служит домом для девяти девочек, которых возглавляет второгодка Чика Таками. Ими движет мечта - стать школьными идолами, что будут блистать и озарять всех своим светом на сцене. А если стремиться к своей мечте не покладая рук - она обязательно сбудется! Вперед! К всенародной славе!

Качество: HDTVRip
Тип релиза: Без хардсаба
Формат видео: MP4
Наличие линковки: Нет
Релиз/Автор рипа: Leopard-Raws
Видео: H264, 1280x720, 2772 kbps, 23.976 fps, 8 bit
Аудио: AAC, 192 kbps, 48000 Hz, stereo Язык Японский
Субтитры: ass, внешний Язык субтитров русский
Редактор: Nyam Maro
Переводчик/Тайм-код: Yukio_Sempai
Субтитры 2: ass, внешний Язык субтитров русский
Переводчик: anipaladin
Редактор: Kittor

Не забываем "благодарить" и писать комментарии. Это стимулирует дальнейшие раздачи.
General
Complete name                  : F:\anime\_1\[Leopard-Raws] Love Live! Sunshine!!\[Leopard-Raws] Love Live! Sunshine!! - 01 RAW (BS11 1280x720 x264 AAC).mp4
Format                         : MPEG-4
Format profile                 : Base Media
Codec ID                       : isom
File size                      : 506 MiB
Duration                       : 23mn 49s
Overall bit rate mode          : Variable
Overall bit rate               : 2 967 Kbps
Encoded date                   : UTC 2016-07-02 20:10:03
Tagged date                    : UTC 2016-07-02 20:10:03

Video
ID                             : 1
Format                         : AVC
Format/Info                    : Advanced Video Codec
Format profile                 : High@L4.1
Format settings, CABAC         : Yes
Format settings, ReFrames      : 4 frames
Codec ID                       : avc1
Codec ID/Info                  : Advanced Video Coding
Duration                       : 23mn 49s
Bit rate                       : 2 772 Kbps
Maximum bit rate               : 16.2 Mbps
Width                          : 1 280 pixels
Height                         : 720 pixels
Display aspect ratio           : 16:9
Frame rate mode                : Constant
Frame rate                     : 23.976 fps
Color space                    : YUV
Chroma subsampling             : 4:2:0
Bit depth                      : 8 bits
Scan type                      : Progressive
Bits/(Pixel*Frame)             : 0.125
Stream size                    : 472 MiB (93%)
Title                          : 264:fps=23.976@GPAC0.5.1-DEV-rev4929
Writing library                : x264 core 129 r2245+729M 1a52e03
Encoding settings              : cabac=1 / ref=4 / deblock=1:1:-1 / analyse=0x3:0x113 / me=umh / subme=9 / psy=1 / fade_compensate=0.00 / psy_rd=1.00:0.00 / mixed_ref=1 / me_range=24 / chroma_me=1 / trellis=2 / 8x8dct=1 / cqm=0 / deadzone=21,11 / fast_pskip=1 / chroma_qp_offset=-2 / threads=8 / lookahead_threads=1 / sliced_threads=0 / nr=0 / decimate=1 / interlaced=0 / bluray_compat=0 / constrained_intra=0 / fgo=0 / bframes=9 / b_pyramid=2 / b_adapt=2 / b_bias=0 / direct=1 / weightb=1 / open_gop=0 / weightp=2 / keyint=240 / keyint_min=24 / scenecut=40 / intra_refresh=0 / rc=crf / mbtree=0 / crf=17.5 / qcomp=0.72 / qpmin=0 / qpmax=69 / qpstep=4 / ip_ratio=1.40 / pb_ratio=1.30 / aq=1:0.85
Encoded date                   : UTC 2016-07-02 20:10:03
Tagged date                    : UTC 2016-07-02 20:10:28
Color range                    : Limited
Color primaries                : BT.709
Transfer characteristics       : BT.709
Matrix coefficients            : BT.709

Audio
ID                             : 2
Format                         : AAC
Format/Info                    : Advanced Audio Codec
Format profile                 : LC
Codec ID                       : 40
Duration                       : 23mn 49s
Bit rate mode                  : Variable
Bit rate                       : 192 Kbps
Maximum bit rate               : 255 Kbps
Channel(s)                     : 2 channels
Channel positions              : Front: L R
Sampling rate                  : 48.0 KHz
Compression mode               : Lossy
Stream size                    : 32.6 MiB (6%)
Language                       : Japanese
Encoded date                   : UTC 2016-07-02 17:36:08
Tagged date                    : UTC 2016-07-02 20:10:28
01 I Want to Shine!! 02.07.2016
02 Catch the Transfer Student! 09.07.2016
03 First Step 25m 16.07.2016
04 Two Girls` Feelings 23.07.2016
05 Yohane Descends 30.07.2016
06 Let`s Make a PV 06.08.2016
07 Tokyo 13.08.2016
08 Isn`t It Frustrating? 20.08.2016
09 Young Dreamer 27.08.2016
10 We`ve Got Stewshine 03.09.2016
11 Aye Aye, My Friend 10.09.2016
12 It`s Time to Fly 17.09.2016
13 Sunshine!! 24.09.2016

Еще никто не оставлял запись к записи скачать торрент Живая Любовь! Солнечный Свет!! Love Live! Sunshine!! . Будь первым!

!Обратная связь