Скачать через торрент Новая игра! New Game! бесплатно Аниме Все серии на русском torrent

Если у вас наблюдаются проблемы со скриншотами, переходом по ссылками, скачиванием торрентов - проблемы в блокировщике рекламы AdBlock. #хорошегоДня!


Статистика раздачи
Размер:  3.69 GB   |    Зарегистрирован:  1 год   |    .torrent скачан:  18 раз   |   
Раздают:  1  
   
Загрузка...
 
Автор Сообщение

Galfimbul

avatar Galfimbul


Новая игра! / New Game!
Страна: Япония
Год выпуска: 2016 г.
Тип: TV
Жанр: Сейнен, повседневность, комедия
Продолжительность: 12 эп. по 25 мин
Русские субтитры: FreeDom On-Line Team
Переводчик/Редактор/Перевод песен/Оформление: BeastRUS
Режиссер: Фудзивара Ёсиюки

Студия:

Описание: Аоба Судзуказе только-только окончила школу, но девушка она крайне амбициозная. Видеоигры всегда приводили юную особу в восторг. И поэтому она решает устроиться в компанию по разработке игр. И не каким-то там мелким работником, а 3D-модельером. Но судьба преподносит свои сюрпризы. Её начальником оказался тот самый разработчик, игру которого она так любила ещё со школьной скамьи. Получится ли у нашей героини найти своё место в компании и справится ли она с нарастающим давлением?

<span class="post-font-sans1">Качество: HDTVRip | Равка: Leopard-Raws Формат: mp4 | Тип Видео: без хардсаба
Видео: х264, 8 bits, 1280x720, 1786 kbps, 23.976 fps, (16:9)
JP - AAC, 192 kbps, 48.0 KHz, 2 ch Язык Японский</span>
01. It Actually Feels Like I Started My Job
02. So This Is an Adult Drinking Party...
03. What Happens If I`m Late to Work?
04. The First... Paycheck...
05. That`s How Many Nights We Have to Stay Over?
06. Like... The Release Is Canceled?
07. Please Train the New Hires Properly
08. It`s Summer Break!!
09. Do We Have to Come into Work?
10. Full-time Employment Is a Loophole in the Law to Make Wages Lower
11. There Were Leaked Pictures of the Game on the Internet Yesterday!
Общее
Полное имя : D:\[Leopard-Raws]\[Leopard-Raws] New Game!\[Leopard-Raws] New Game! - 01 RAW (ATX 1280x720 x264 AAC).mp4
Формат : MPEG-4
Профиль формата : Base Media
Идентификатор кодека : isom
Размер файла : 340 Мбайт
Продолжительность : 24 м.
Режим общего битрейта : Переменный
Общий поток : 1981 Кбит/сек
Дата кодирования : UTC 2016-07-05 05:54:48
Дата пометки : UTC 2016-07-05 05:54:48

Видео
Идентификатор : 1
Формат : AVC
Формат/Информация : Advanced Video Codec
Профиль формата : High@L4.1
Параметр CABAC формата : Да
Параметр ReFrames формата : 4 кадра
Идентификатор кодека : avc1
Идентификатор кодека/Информация : Advanced Video Coding
Продолжительность : 24 м.
Битрейт : 1786 Кбит/сек
Максимальный битрейт : 7812 Кбит/сек
Ширина : 1280 пикселей
Высота : 720 пикселей
Соотношение сторон : 16:9
Режим частоты кадров : Постоянный
Частота кадров : 23,976 кадра/сек
Цветовое пространство : YUV
Субдискретизация насыщенности : 4:2:0
Битовая глубина : 8 бит
Тип развёртки : Прогрессивная
Бит/(Пиксели*Кадры) : 0.081
Размер потока : 307 Мбайт (90%)
Заголовок : 264:fps=23.976@GPAC0.5.1-DEV-rev4929
Библиотека кодирования : x264 core 129 r2245+729M 1a52e03
Настройки программы : cabac=1 / ref=4 / deblock=1:1:-1 / analyse=0x3:0x113 / me=umh / subme=9 / psy=1 / fade_compensate=0.00 / psy_rd=1.00:0.00 / mixed_ref=1 / me_range=24 / chroma_me=1 / trellis=2 / 8x8dct=1 / cqm=0 / deadzone=21,11 / fast_pskip=1 / chroma_qp_offset=-2 / threads=8 / lookahead_threads=1 / sliced_threads=0 / nr=0 / decimate=1 / interlaced=0 / bluray_compat=0 / constrained_intra=0 / fgo=0 / bframes=9 / b_pyramid=2 / b_adapt=2 / b_bias=0 / direct=1 / weightb=1 / open_gop=0 / weightp=2 / keyint=240 / keyint_min=24 / scenecut=40 / intra_refresh=0 / rc=crf / mbtree=0 / crf=18.5 / qcomp=0.72 / qpmin=0 / qpmax=69 / qpstep=4 / ip_ratio=1.40 / pb_ratio=1.30 / aq=1:0.85
Дата кодирования : UTC 2016-07-05 05:54:48
Дата пометки : UTC 2016-07-05 05:54:50
Основные цвета : BT.709
Характеристики трансфера : BT.709
Коэффициенты матрицы : BT.709

Аудио
Идентификатор : 2
Формат : AAC
Формат/Информация : Advanced Audio Codec
Профиль формата : LC
Идентификатор кодека : 40
Продолжительность : 24 м.
Вид битрейта : Переменный
Битрейт : 192 Кбит/сек
Максимальный битрейт : 229 Кбит/сек
Каналы : 2 канала
Расположение каналов : Front: L R
Частота : 48,0 КГц
Метод сжатия : С потерями
Размер потока : 32,8 Мбайт (10%)
Язык : Japanese
Дата кодирования : UTC 2016-07-04 17:28:34
Дата пометки : UTC 2016-07-05 05:54:50


Обновите торент файл, добавлена 11я серия

Трекер:  [ 18-Сен-2016 09:30 ]

  

Скачать .torrent

Размер .torrent файла 21 KB


Размер: 3.69 GB
Хэш (hash) релиза: 69a1fa044597b31f0bcf58c3be2be35d1d125296
Подписка на обновления:

Торренты, похожие на Новая игра! New Game! скачать торрент

Форум Название Автор Размер S L Добавлен
Аниме | Rips ·· Новая Игра! / New Game! [OVA] [1 из 1] [Без хардсаба] [RUS(ext), JAP, SUB] [2017, Повседневность, Комедия, DVDRip] [720p] Galfimbul 976636333931 MB 0 0 1497762092

08:01

18-Июн-17

Аниме | HD Rips ·· Новая игра! / New Game! (Фудзивара Ёсиюки) [TV] [12 из 12] [без хардсаба] [RUS(ext), JAP+SUB] [2016, cейнен, повседневность, комедия, BDRemux] [1080p] Galfimbul 8721615886181.23 GB 0 0 1496256905

21:55

31-Май-17

Аниме | HD Rips ·· Новая игра! / New Game! [TV] [12 из 12] [Без хардсаба] [RUS(ext),JAP+SUB] [2016, повседневность, комедия, BDRip] [1080p] Galfimbul 2953270046527.5 GB 0 0 1495318059

01:07

21-Май-17

Аниме | Rips ·· Новая игра! / New Game! (Фудзивара Ёсиюки) [OVA] [1 из 1] [Без хардсаба] [JAP+SUB] [2017, повседневность, комедия, DVDRip] Galfimbul 952447642908 MB 0 0 1495086283

08:44

18-Май-17

Аниме | HD Rips ·· Новая игра! / New Game! (Фудзивара Ёсиюки) [TV] [12 из 12] [без хардсаба] [JAP+SUB] [2016, cейнен, повседневность, комедия, BDRemux] [1080p] Galfimbul 8526676277679.41 GB 0 0 1492358393

18:59

16-Апр-17

Аниме | HD Rips ·· Новая игра! / New Game! [TV] [12 из 12] [Без хардсаба] [JAP+SUB] [2016, повседневность, комедия, BDRip] [720p] Galfimbul 43429713374.04 GB 0 0 1489703410

01:30

17-Мар-17

Аниме | HD Rips ·· Новая игра! / New Game! (Фудзивара Ёсиюки) [TV] [1-10 из 12] [без хардсаба] [JAP+SUB] [2016, cейнен, повседневность, комедия, BDRemux] [1080p] Galfimbul 7140528562066.5 GB 0 0 1487880926

23:15

23-Фев-17

Аниме | HD Rips ·· Новая игра! / New Game! (Фудзивара Ёсиюки) [TV] [1-8 из 12] [без хардсаба] [JAP+SUB] [2016, cейнен, повседневность, комедия, BDRemux] [1080p] Galfimbul 5750769429653.56 GB 0 0 1485107050

20:44

22-Янв-17

Аниме | HD Rips ·· Новая игра! / New Game! (Фудзивара Ёсиюки) [TV] [1-6 из 12] [без хардсаба] [JAP+SUB] [2016, cейнен, повседневность, комедия, BDRemux] [1080p] Galfimbul 4308184212840.12 GB 0 0 1480774196

17:09

3-Дек-16

Аниме | HD Rips ·· Новая игра! / New Game! (Фудзивара Ёсиюки) [TV] [01-04 из 12] [без хардсаба] [JAP+SUB] [2016, cейнен, повседневность, комедия, BDRemux] [1080p] Galfimbul 2912653145927.13 GB 0 0 1477831209

15:40

30-Окт-16

Аниме | HD Rips ·· Новая игра! / New Game! [TV] [1-2 из 12] [Без хардсаба] [JAP+SUB] [2016 г., повседневность, комедия BDRip] [1080p] Galfimbul 50717161704.72 GB 0 0 1476025789

18:09

9-Окт-16

Аниме | Rips ·· Новая Игра! / New Game! [TV] [12 из 12] [Без хардсаба] [RUS(ext), JAP, SUB] [2016 г., Повседневность, Комедия, HDTVRip] [720p] Galfimbul 55338743195.15 GB 0 0 1475976427

04:27

9-Окт-16

Аниме | HD Rips ·· Новая игра! / New Game! (Фудзивара Ёсиюки) [TV] [01-02 из 12] [без хардсаба] [JAP+SUB] [2016 г., cейнен, повседневность, комедия, BDRemux] [1080p] Galfimbul 1443557435613.44 GB 0 0 1475395183

10:59

2-Окт-16

Аниме | Rips ·· Новая Игра! / New Game! [TV] [12 из 12] [Без хардсаба] [RUS(ext), JAP, SUB] [2016 г., Повседневность, Комедия, HDTVRip] [720p] Galfimbul 54302553185.06 GB 0 0 1475379263

06:34

2-Окт-16

Аниме | HD Rips ·· Новая игра! / New Game! [TV] [12 из 12] [Без хардсаба] [JAP+SUB] [2016 г., повседневность, комедия WEBRip] [1080p] Galfimbul 68295309366.36 GB 0 0 1474990717

18:38

27-Сен-16

Аниме | HD Rips ·· Новая игра! / New Game! (Фудзивара Ёсиюки) [TV] [12 из 12] [Без хардсаба] [JAP+SUB] [2016 г., Сейнен, повседневность, комедия HDTVRip] [720p] Galfimbul 42824341453.99 GB 0 0 1474965150

11:32

27-Сен-16

Аниме | HD Rips ·· Новая игра! / New Game! [TV] [12 из 12] [Без хардсаба] [JAP+SUB] [2016 г., повседневность, комедия WEBRip] [1080p] Galfimbul 68295309366.36 GB 0 0 1474903985

18:33

26-Сен-16

Аниме | HD Rips ·· Новая игра! / New Game! [TV] [1-11 из 12] [Без хардсаба] [JAP+SUB] [2016 г., повседневность, комедия WEBRip] [1080p] Galfimbul 62676292315.84 GB 0 0 1474742216

21:36

24-Сен-16

Аниме | Rips ·· Новая Игра! / New Game! [TV] [01-11 из 12] [Без хардсаба] [RUS(ext), JAP, SUB] [2016 г., Повседневность, Комедия, HDTVRip] [720p] Galfimbul 50123683334.67 GB 0 0 1474098848

10:54

17-Сен-16

Еще никто не оставлял запись к записи скачать торрент Новая игра! New Game! . Будь первым!

!Обратная связь