Скачать через торрент Сервамп Servamp бесплатно Аниме Все серии на русском torrent

Если у вас наблюдаются проблемы со скриншотами, переходом по ссылками, скачиванием торрентов - проблемы в блокировщике рекламы AdBlock. #хорошегоДня!


Статистика раздачи
Размер:  4.32 GB   |    Зарегистрирован:  1 год   |    .torrent скачан:  83 раза   |   
Раздают:  2  
   
Загрузка...
 
Автор Сообщение

Galfimbul

avatar Galfimbul


Сервамп / Servamp
Страна: Япония
Год выпуска: 2016 г.
Тип: TV
Жанр: Приключения, экшн, фентези, седзе, вампиры
Продолжительность: 12 эп. по 25 мин
Русские субтитры: YakuSub Studio
Переводчик/Оформление: Nika_Elrik
Редактор: Red-blue_heart

Режиссер: Накано Хидэаки

Студия:

Описание: Махиру обычный парень, любящий простоту и ясность во всем, а любые жизненные невзгоды ненавидит до смерти и старается их всячески избегать. Но жизнь его круто меняется после того, как на пути попадается бездомный черный котенок. Добродушный Махиру подобрал его и назвал питомца - Куро. Но как оказалось, Куро и не кот то вовсе, а некий сервамп, и что парень заключил с ним некий контракт. Настали для Махиру нелегкие времена, если не сказать хуже. Ну а как бы вы сами себя почувствовали, узнав, что втянуты, не много, не мало, а в настоящую войну между сервампами, на стороне семи братьев, против восьмого, по имени Цубаки!

<span class="post-font-sans1">Качество: HDTVRip | Равка: Leopard-Raws Формат: mp4 | Тип Видео: без хардсаба
Видео: х264, 8 bits, 1280x720, 2275 kbps, 23.976 fps, (16:9)
JP - AAC, 192 kbps, 48.0 KHz, 2 ch Язык Японский</span>
01. Mahiru and Kuro
02. Tsubaki
03. About the Future That Never Came
04. Sakuya
05. I Am an Adult. This Is Society
06. Angel or Demon
07. Because I Am...
08. Nothing Begins Without Action...
09. I`m Not Wrong
10. Lawless
Общее
Полное имя : D:\[Leopard-Raws]\[Leopard-Raws] Servamp\[Leopard-Raws] Servamp - 01 RAW (ATX 1280x720 x264 AAC).mp4
Формат : MPEG-4
Профиль формата : Base Media
Идентификатор кодека : isom
Размер файла : 419 Мбайт
Продолжительность : 24 м.
Режим общего битрейта : Переменный
Общий поток : 2440 Кбит/сек
Дата кодирования : UTC 2016-07-05 18:06:50
Дата пометки : UTC 2016-07-05 18:06:50

Видео
Идентификатор : 1
Формат : AVC
Формат/Информация : Advanced Video Codec
Профиль формата : High@L4.1
Параметр CABAC формата : Да
Параметр ReFrames формата : 4 кадра
Идентификатор кодека : avc1
Идентификатор кодека/Информация : Advanced Video Coding
Продолжительность : 24 м.
Битрейт : 2245 Кбит/сек
Максимальный битрейт : 27,5 Мбит/сек
Ширина : 1280 пикселей
Высота : 720 пикселей
Соотношение сторон : 16:9
Режим частоты кадров : Постоянный
Частота кадров : 23,976 кадра/сек
Цветовое пространство : YUV
Субдискретизация насыщенности : 4:2:0
Битовая глубина : 8 бит
Тип развёртки : Прогрессивная
Бит/(Пиксели*Кадры) : 0.102
Размер потока : 385 Мбайт (92%)
Заголовок : 264:fps=23.976@GPAC0.5.1-DEV-rev4929
Библиотека кодирования : x264 core 129 r2245+729M 1a52e03
Настройки программы : cabac=1 / ref=4 / deblock=1:1:-1 / analyse=0x3:0x113 / me=umh / subme=9 / psy=1 / fade_compensate=0.00 / psy_rd=1.00:0.00 / mixed_ref=1 / me_range=24 / chroma_me=1 / trellis=2 / 8x8dct=1 / cqm=0 / deadzone=21,11 / fast_pskip=1 / chroma_qp_offset=-2 / threads=8 / lookahead_threads=1 / sliced_threads=0 / nr=0 / decimate=1 / interlaced=0 / bluray_compat=0 / constrained_intra=0 / fgo=0 / bframes=9 / b_pyramid=2 / b_adapt=2 / b_bias=0 / direct=1 / weightb=1 / open_gop=0 / weightp=2 / keyint=240 / keyint_min=24 / scenecut=40 / intra_refresh=0 / rc=crf / mbtree=0 / crf=18.5 / qcomp=0.72 / qpmin=0 / qpmax=69 / qpstep=4 / ip_ratio=1.40 / pb_ratio=1.30 / aq=1:0.85
Дата кодирования : UTC 2016-07-05 18:06:50
Дата пометки : UTC 2016-07-05 18:06:53
Основные цвета : BT.709
Характеристики трансфера : BT.709
Коэффициенты матрицы : BT.709

Аудио
Идентификатор : 2
Формат : AAC
Формат/Информация : Advanced Audio Codec
Профиль формата : LC
Идентификатор кодека : 40
Продолжительность : 24 м.
Вид битрейта : Переменный
Битрейт : 192 Кбит/сек
Максимальный битрейт : 234 Кбит/сек
Каналы : 2 канала
Расположение каналов : Front: L R
Частота : 48,0 КГц
Метод сжатия : С потерями
Размер потока : 32,9 Мбайт (8%)
Язык : Japanese
Дата кодирования : UTC 2016-07-05 17:02:21
Дата пометки : UTC 2016-07-05 18:06:53


Обновите торент файл, добавлена 10я серия

Трекер:  [ 13-Сен-2016 00:00 ]

  

Скачать .torrent

Размер .torrent файла 13 KB


Размер: 4.32 GB
Хэш (hash) релиза: 97f9f69a35b89ebd8f91cb96de7c0f9e38ada4fa
Подписка на обновления:

Торренты, похожие на Сервамп Servamp скачать торрент

Форум Название Автор Размер S L Добавлен
Аниме | Rips ·· Сервамп / Servamp [TV] [12 из 12] [Без хардсаба] [RUS(int), JAP, SUB] [2016, экшен, комедия, сёзде, вампиры, сверхъестественное, HDTVRip] [HWP] Galfimbul 40072754343.73 GB 0 0 1479847729

23:48

22-Ноя-16

Аниме | Rips ·· Сервамп / Servamp [TV] [12 из 12] [Без хардсаба] [RUS(int), JAP, SUB] [2016 г., экшен, комедия, сёзде, вампиры, сверхъестественное, HDTVRip] [HWP] Galfimbul 40072801743.73 GB 0 0 1475694178

22:02

5-Окт-16

Аниме | Rips ·· Сервамп / Servamp [TV] [12 из 12] [Без хардсаба] [RUS(int), JAP, SUB] [2016 г., экшен, комедия, сёзде, вампиры, сверхъестественное, HDTVRip] [720p] Galfimbul 54702302115.09 GB 0 0 1475608271

22:11

4-Окт-16

Аниме | HD Rips ·· Сервамп / Servamp (Накано Хидэаки) [TV] [12 из 12] [Без хардсаба] [JAP+SUB] [2016 г., приключения, экшн, фентези, седзе, вампиры HDTVRip] [720p] Galfimbul 58778330455.47 GB 0 0 1474979709

15:35

27-Сен-16

Аниме | HD Rips ·· Сервамп / Servamp (Накано Хидэаки) [TV] [11 из 12] [Без хардсаба] [JAP+SUB] [2016 г., приключения, экшн, фентези, седзе, вампиры HDTVRip] [720p] Galfimbul 51175979234.77 GB 0 0 1474231420

23:43

18-Сен-16

Аниме | Rips ·· Сервамп / Servamp [TV] [9 из 12] [Без хардсаба] [RUS(int), JAP, SUB] [2016 г., экшен, комедия, сёзде, вампиры, сверхъестественное, HDTVRip] [720p] Galfimbul 39440547443.67 GB 0 0 1474219672

20:27

18-Сен-16

Аниме | Rips ·· Сервамп / Servamp [TV] [8 из 12] [Без хардсаба] [RUS(int), JAP, SUB] [2016 г., экшен, комедия, сёзде, вампиры, сверхъестественное, HDTVRip] [720p] Galfimbul 34623021023.22 GB 0 0 1473793300

22:01

13-Сен-16

Аниме | Rips ·· Сервамп / Servamp [TV] [8 из 12] [Без хардсаба] [RUS(int), JAP, SUB] [2016 г., экшен, комедия, сёзде, вампиры, сверхъестественное, HDTVRip] [HWP] Galfimbul 26643641642.48 GB 0 0 1473793294

22:01

13-Сен-16

Аниме | HD Rips ·· Сервамп / Servamp (Накано Хидэаки) [TV] [9 из 12] [Без хардсаба] [JAP+SUB] [2016 г., приключения, экшн, фентези, седзе, вампиры HDTVRip] [720p] Galfimbul 42157907393.93 GB 0 0 1473162769

14:52

6-Сен-16

Аниме | HD Rips ·· Сервамп / Servamp (Накано Хидэаки) [TV] [8 из 12] [Без хардсаба] [JAP+SUB] [2016 г., приключения, экшн, фентези, седзе, вампиры HDTVRip] [720p] Galfimbul 37065077423.45 GB 0 0 1472511774

02:02

30-Авг-16

Аниме | Rips ·· Сервамп / Servamp [TV] [7 из 12] [Без хардсаба] [RUS(int), JAP, SUB] [2016 г., экшен, комедия, сёзде, вампиры, сверхъестественное, HDTVRip] [720p] Galfimbul 30213163822.81 GB 0 0 1471677034

10:10

20-Авг-16

Аниме | HD Rips ·· Сервамп / Servamp (Накано Хидэаки) [TV] [7 из 12] [Без хардсаба] [JAP+SUB] [2016 г., приключения, экшн, фентези, седзе, вампиры HDTVRip] [720p] Galfimbul 32392182973.02 GB 0 0 1471440382

16:26

17-Авг-16

Аниме | Rips ·· Сервамп / Servamp [TV] [2 из 12] [Без хардсаба] [RUS(int), JAP, SUB] [2016 г., экшен, комедия, сёзде, вампиры, сверхъестественное, HDTVRip] [HWP] Galfimbul 19975134491.86 GB 0 0 1471231304

06:21

15-Авг-16

Аниме | Rips ·· Сервамп / Servamp [TV] [5 из 12] [Без хардсаба] [RUS(int), JAP, SUB] [2016 г., экшен, комедия, сёзде, вампиры, сверхъестественное, HDTVRip] [720p] Galfimbul 21595358672.01 GB 0 0 1471113493

21:38

13-Авг-16

Аниме | HD Rips ·· Сервамп / Servamp (Накано Хидэаки) [TV] [6 из 12] [Без хардсаба] [JAP+SUB] [2016 г., приключения, экшн, фентези, седзе, вампиры HDTVRip] [720p] Galfimbul 27683389232.58 GB 0 0 1471089909

15:05

13-Авг-16

Аниме | Rips ·· Сервамп / Servamp [TV] [3 из 12] [Без хардсаба] [RUS(int), JAP, SUB] [2016 г., экшен, комедия, сёзде, вампиры, сверхъестественное, HDTVRip] [720p] Galfimbul 13354152451.24 GB 0 0 1470857196

22:26

10-Авг-16

Аниме | HD Rips ·· Сервамп / Servamp (Накано Хидэаки) [TV] [4 из 12] [Без хардсаба] [JAP+SUB] [2016 г., приключения, экшн, фентези, седзе, вампиры HDTVRip] [720p] Galfimbul 23059331232.15 GB 0 0 1470380200

09:56

5-Авг-16

Аниме | HD Rips ·· Сервамп / Servamp (Накано Хидэаки) [TV] [4 из 12] [Без хардсаба] [JAP+SUB] [2016 г., приключения, экшн, фентези, седзе, вампиры HDTVRip] [720p] Galfimbul 18784177111.75 GB 0 0 1469769721

08:22

29-Июл-16

Аниме | HD Rips ·· Сервамп / Servamp (Накано Хидэаки) [TV] [2 из 12] [Без хардсаба] [JAP+SUB] [2016 г., приключения, экшн, фентези, седзе, вампиры HDTVRip] [720p] Galfimbul 965525522921 MB 0 0 1468614880

23:34

15-Июл-16

Еще никто не оставлял запись к записи скачать торрент Сервамп Servamp . Будь первым!

!Обратная связь