Kotonoha no Niwa torrent

, , - AdBlock. #!


34.78 GB   |    :  1 3    |    .torrent :  10    |   
2  
   
...
 

Galfimbul

avatar Galfimbul


/ Kotonoha no Niwa / The Garden of Words

:
: 2013 .
: ,
: Movie
: 120 .
:
:
: 15- , , , . , , , . ,
, , , . , , , , , , . ( ) - , , , . , !

Hollow, World Art

. : .
: Blu-ray
:
: M2TS
:
/ : <a href="profile.php?mode=viewprofile&u=35238799" class="postLink">Kuji Kita</a>
: AVC, 8 , 1920x1080, 27 956 kbps, 23.976 fps
: LPCM, 2 304 kbps, 48 kHz, 2 ch ( ) ; : ,
2: DTS-HD MA, 3 753 kbps, 48 kHz, 5.1 ch (DTS Core, 1 509 kbps, 48 kHz, 5.1 ch) ( ) ; : ,
3: LPCM, 2 304 kbps, 48 kHz, 2 ch
4: DTS-HD MA, 3 732 kbps, 48 kHz, 5.1 ch (DTS Core, 1 509 kbps, 48 kHz, 5.1 ch)
5: AC3, 256 kbps, 48 kHz, 2.0 ch ()
: pgs, (//) ; :
[spoiler=" . "]
Disc Title: Kotonoha no Niwa (Blu-Ray)
Disc Size: 37348702448 bytes
Protection: AACS
BD-Java: No
BDInfo: 0.5.8

Notes:

BDINFO HOME:
Cinema Squid
http://www.cinemasquid.com/blu-ray/tools/bdinfo

INCLUDES FORUMS REPORT FOR:
AVS Forum Blu-ray Audio and Video Specifications Thread
http://www.avsforum.com/avs-vb/showthread.php?t=1155731

********************
PLAYLIST: 00001.MPLS
********************

<--- BEGIN FORUMS PASTE --->

:

Total Video
Title Codec Length Movie Size Disc Size Bitrate Bitrate Main Audio Track Secondary Audio Track
----- ------ ------- -------------- -------------- ------- ------- ------------------ ---------------------
00001.MPLS AVC 0:46:20 14873586432 37348702448 42,80 27,96 LPCM 2.0 2304Kbps (48kHz/24-bit) DTS-HD Master 5.1 3753Kbps (48kHz/24-bit)[/spoiler]
DISC INFO:

Disc Title: Kotonoha no Niwa (Blu-Ray)
Disc Size: 37348702448 bytes
Protection: AACS
BD-Java: No
BDInfo: 0.5.8

PLAYLIST REPORT:

Name: 00001.MPLS
Length: 0:46:20.110 (h:m:s.ms)
Size: 14873586432 bytes
Total Bitrate: 42,80 Mbps

VIDEO:

Codec Bitrate Description
----- ------- -----------
MPEG-4 AVC Video 27956 kbps 1080p / 23,976 fps / 16:9 / High Profile 4.1

AUDIO:

Codec Language Bitrate Description
----- -------- ------- -----------
LPCM Audio Russian 2304 kbps 2.0 / 48 kHz / 2304 kbps / 24-bit
DTS-HD Master Audio Russian 3753 kbps 5.1 / 48 kHz / 3753 kbps / 24-bit (DTS Core: 5.1 / 48 kHz / 1509 kbps / 24-bit)
LPCM Audio Japanese 2304 kbps 2.0 / 48 kHz / 2304 kbps / 24-bit
DTS-HD Master Audio Japanese 3732 kbps 5.1 / 48 kHz / 3732 kbps / 24-bit (DTS Core: 5.1 / 48 kHz / 1509 kbps / 24-bit)
Dolby Digital Audio Japanese 256 kbps 2.0 / 48 kHz / 256 kbps

SUBTITLES:

Codec Language Bitrate Description
----- -------- ------- -----------
Presentation Graphics Russian 4,645 kbps
Presentation Graphics Russian 26,248 kbps
Presentation Graphics Russian 54,044 kbps

FILES:

Name Time In Length Size Total Bitrate
---- ------- ------ ---- -------------
00000.M2TS 0:00:00.000 0:46:00.549 14868059328 43087
00006.M2TS 0:46:00.549 0:00:19.561 5527104 2256

CHAPTERS:

Number Time In Length Avg Video Rate Max 1-Sec Rate Max 1-Sec Time Max 5-Sec Rate Max 5-Sec Time Max 10Sec Rate Max 10Sec Time Avg Frame Size Max Frame Size Max Frame Time
------ ------- ------ -------------- -------------- -------------- -------------- -------------- -------------- -------------- -------------- -------------- --------------
1 0:00:00.000 0:00:17.308 11721 kbps 35607 kbps 00:00:06.631 25341 kbps 00:00:04.629 20173 kbps 00:00:00.375 60961 bytes 282707 bytes 00:00:08.550
2 0:00:17.308 0:04:59.465 29299 kbps 47300 kbps 00:05:11.352 35424 kbps 00:01:06.941 33788 kbps 00:02:10.797 152752 bytes 926103 bytes 00:02:55.758
3 0:05:16.774 0:04:53.251 26629 kbps 47841 kbps 00:06:48.866 34371 kbps 00:05:17.942 32608 kbps 00:08:01.314 138831 bytes 932118 bytes 00:09:57.179
4 0:10:10.026 0:03:00.680 28997 kbps 47877 kbps 00:12:07.560 35660 kbps 00:11:49.083 33940 kbps 00:12:12.690 151179 bytes 917957 bytes 00:11:17.843
5 0:13:10.706 0:05:19.193 28328 kbps 46539 kbps 00:18:21.100 35261 kbps 00:15:15.456 33879 kbps 00:15:15.456 147687 bytes 935449 bytes 00:16:33.033
6 0:18:29.900 0:06:49.784 27752 kbps 49187 kbps 00:23:53.807 35339 kbps 00:23:52.889 33835 kbps 00:21:32.708 144688 bytes 933461 bytes 00:18:50.921
7 0:25:19.684 0:04:02.242 25953 kbps 42321 kbps 00:26:47.647 33233 kbps 00:26:47.647 31986 kbps 00:27:17.886 135309 bytes 931743 bytes 00:27:10.503
8 0:29:21.926 0:07:45.465 28182 kbps 48671 kbps 00:31:53.953 35974 kbps 00:32:21.481 33630 kbps 00:33:45.606 146928 bytes 934378 bytes 00:33:28.965
9 0:37:07.391 0:03:27.332 29967 kbps 43738 kbps 00:37:51.018 35135 kbps 00:39:58.270 33559 kbps 00:39:57.436 156233 bytes 784240 bytes 00:40:34.682
10 0:40:34.723 0:04:19.801 30312 kbps 49113 kbps 00:44:48.477 35496 kbps 00:42:58.534 33250 kbps 00:43:45.164 158035 bytes 905039 bytes 00:40:59.081
11 0:44:54.525 0:01:06.024 26512 kbps 46425 kbps 00:45:35.607 35873 kbps 00:45:05.160 33510 kbps 00:45:05.160 138394 bytes 886971 bytes 00:45:16.755
12 0:46:00.549 0:00:19.561 2082 kbps 7364 kbps 00:46:10.642 3321 kbps 00:46:09.516 2815 kbps 00:46:08.891 10923 bytes 181290 bytes 00:46:11.560

STREAM DIAGNOSTICS:

File PID Type Codec Language Seconds Bitrate Bytes Packets
---- --- ---- ----- -------- -------------- -------------- ------------- -----
00000.M2TS 4113 (0x1011) 0x1B AVC 2760,466 28141 9710330637 52813092
00000.M2TS 4352 (0x1100) 0x80 LPCM rus (Russian) 2760,466 2315 798800584 4425488
00000.M2TS 4353 (0x1101) 0x86 DTS-HD MA rus (Russian) 2760,466 3780 1304166400 7517745
00000.M2TS 4354 (0x1102) 0x80 LPCM jpn (Japanese) 2760,466 2315 798800584 4425488
00000.M2TS 4355 (0x1103) 0x86 DTS-HD MA jpn (Japanese) 2760,466 3758 1296899352 7479061
00000.M2TS 4356 (0x1104) 0x81 AC3 jpn (Japanese) 2760,466 257 88509440 518610
00000.M2TS 4608 (0x1200) 0x90 PGS rus (Russian) 2760,466 5 1614275 9055
00000.M2TS 4609 (0x1201) 0x90 PGS rus (Russian) 2760,466 26 9121952 51681
00000.M2TS 4610 (0x1202) 0x90 PGS rus (Russian) 2760,466 54 18781511 104916
00006.M2TS 4113 (0x1011) 0x1B AVC 19,478 2114 5145844 28136
<---- END FORUMS PASTE ---->

QUICK SUMMARY:

Disc Title: Kotonoha no Niwa (Blu-Ray)
Disc Size: 37348702448 bytes
Protection: AACS
BD-Java: No
Playlist: 00001.MPLS
Size: 14873586432 bytes
Length: 0:46:20.110
Total Bitrate: 42,80 Mbps
Video: MPEG-4 AVC Video / 27956 kbps / 1080p / 23,976 fps / 16:9 / High Profile 4.1
Audio: Russian / LPCM Audio / 2.0 / 48 kHz / 2304 kbps / 24-bit
Audio: Russian / DTS-HD Master Audio / 5.1 / 48 kHz / 3753 kbps / 24-bit (DTS Core: 5.1 / 48 kHz / 1509 kbps / 24-bit)
Audio: Japanese / LPCM Audio / 2.0 / 48 kHz / 2304 kbps / 24-bit
Audio: Japanese / DTS-HD Master Audio / 5.1 / 48 kHz / 3732 kbps / 24-bit (DTS Core: 5.1 / 48 kHz / 1509 kbps / 24-bit)
Audio: Japanese / Dolby Digital Audio / 2.0 / 48 kHz / 256 kbps
Subtitle: Russian / 4,645 kbps
Subtitle: Russian / 26,248 kbps
Subtitle: Russian / 54,044 kbps

********************
PLAYLIST: 00002.MPLS
********************

<--- BEGIN FORUMS PASTE --->
Total Video
Title Codec Length Movie Size Disc Size Bitrate Bitrate Main Audio Track Secondary Audio Track
----- ------ ------- -------------- -------------- ------- ------- ------------------ ---------------------
00002.MPLS AVC 0:45:11 8123585664 37348702448 23,97 21,20 DD AC3 2.0 384Kbps
DISC INFO:

Disc Title: Kotonoha no Niwa (Blu-Ray)
Disc Size: 37348702448 bytes
Protection: AACS
BD-Java: No
BDInfo: 0.5.8

PLAYLIST REPORT:

Name: 00002.MPLS
Length: 0:45:11.542 (h:m:s.ms)
Size: 8123585664 bytes
Total Bitrate: 23,97 Mbps

VIDEO:

Codec Bitrate Description
----- ------- -----------
MPEG-4 AVC Video 21197 kbps 1080p / 23,976 fps / 16:9 / High Profile 4.1

AUDIO:

Codec Language Bitrate Description
----- -------- ------- -----------
Dolby Digital Audio Japanese 384 kbps 2.0 / 48 kHz / 384 kbps
Dolby Digital Audio Japanese 384 kbps 2.0 / 48 kHz / 384 kbps
Dolby Digital Audio Japanese 384 kbps 2.0 / 48 kHz / 384 kbps
Dolby Digital Audio Japanese 384 kbps 2.0 / 48 kHz / 384 kbps

SUBTITLES:

Codec Language Bitrate Description
----- -------- ------- -----------
Presentation Graphics Russian 21,669 kbps
Presentation Graphics Russian 21,669 kbps

FILES:

Name Time In Length Size Total Bitrate
---- ------- ------ ---- -------------
00010.M2TS 0:00:00.000 0:00:10.885 4593216 3363
00003.M2TS 0:00:10.885 0:45:00.656 8118992448 24050

CHAPTERS:

Number Time In Length Avg Video Rate Max 1-Sec Rate Max 1-Sec Time Max 5-Sec Rate Max 5-Sec Time Max 10Sec Rate Max 10Sec Time Avg Frame Size Max Frame Size Max Frame Time
------ ------- ------ -------------- -------------- -------------- -------------- -------------- -------------- -------------- -------------- -------------- --------------
1 0:00:00.000 0:00:10.885 1500 kbps 4460 kbps 00:00:00.625 1679 kbps 00:00:00.458 1614 kbps 00:00:00.625 7849 bytes 117278 bytes 00:00:01.543
2 0:00:10.885 0:04:48.955 23118 kbps 58883 kbps 00:04:12.210 37291 kbps 00:01:19.454 35149 kbps 00:01:57.909 120526 bytes 932723 bytes 00:03:55.860
3 0:04:59.841 0:04:51.249 19239 kbps 59602 kbps 00:05:45.136 37959 kbps 00:08:25.087 35139 kbps 00:05:05.763 100302 bytes 935026 bytes 00:08:57.203
4 0:09:51.090 0:02:57.218 27064 kbps 53441 kbps 00:10:23.247 38219 kbps 00:11:53.087 35548 kbps 00:10:46.645 141102 bytes 935419 bytes 00:10:28.753
5 0:12:48.309 0:05:16.649 21538 kbps 56872 kbps 00:14:20.568 38489 kbps 00:15:47.821 35629 kbps 00:14:52.516 112292 bytes 931761 bytes 00:16:10.761
6 0:18:04.958 0:06:44.403 21581 kbps 58078 kbps 00:22:49.868 38249 kbps 00:22:52.579 35391 kbps 00:21:41.383 112515 bytes 935642 bytes 00:21:33.917
7 0:24:49.362 0:04:00.698 14649 kbps 56667 kbps 00:26:41.266 37776 kbps 00:28:34.421 29668 kbps 00:25:54.719 76375 bytes 928886 bytes 00:25:14.679
8 0:28:50.061 0:07:31.492 18352 kbps 55717 kbps 00:29:51.748 37691 kbps 00:32:52.428 35596 kbps 00:29:18.923 95678 bytes 932300 bytes 00:31:32.015
9 0:36:21.554 0:02:50.461 18836 kbps 56375 kbps 00:36:54.253 37828 kbps 00:36:32.064 35459 kbps 00:36:32.064 98203 bytes 812316 bytes 00:36:48.873
10 0:39:12.016 0:04:53.668 28283 kbps 56902 kbps 00:39:41.545 37001 kbps 00:43:59.595 35689 kbps 00:39:45.800 147456 bytes 911312 bytes 00:40:25.381
11 0:44:05.684 0:01:05.857 22875 kbps 55232 kbps 00:44:57.194 36923 kbps 00:44:27.873 35547 kbps 00:44:10.314 119414 bytes 917589 bytes 00:44:53.774

STREAM DIAGNOSTICS:

File PID Type Codec Language Seconds Bitrate Bytes Packets
---- --- ---- ----- -------- -------------- -------------- ------------- -----
00010.M2TS 4113 (0x1011) 0x1B AVC 10,802 1512 2042102 11183
00010.M2TS 4352 (0x1100) 0x81 AC3 jpn (Japanese) 10,802 388 523776 3069
00010.M2TS 4353 (0x1101) 0x81 AC3 jpn (Japanese) 10,802 388 523776 3069
00010.M2TS 4354 (0x1102) 0x81 AC3 jpn (Japanese) 10,802 388 523776 3069
00010.M2TS 4355 (0x1103) 0x81 AC3 jpn (Japanese) 10,802 388 523776 3069
00010.M2TS 4608 (0x1200) 0x90 PGS rus (Russian) 10,802 5 6762 44
00010.M2TS 4609 (0x1201) 0x90 PGS rus (Russian) 10,802 5 6762 44
00003.M2TS 4113 (0x1011) 0x1B AVC 2700,573 21278 7182805501 39074232
00003.M2TS 4352 (0x1100) 0x81 AC3 jpn (Japanese) 2700,573 384 129632256 759564
00003.M2TS 4353 (0x1101) 0x81 AC3 jpn (Japanese) 2700,573 384 129632256 759564
00003.M2TS 4354 (0x1102) 0x81 AC3 jpn (Japanese) 2700,573 384 129632256 759564
00003.M2TS 4355 (0x1103) 0x81 AC3 jpn (Japanese) 2700,573 384 129632256 759564
00003.M2TS 4608 (0x1200) 0x90 PGS rus (Russian) 2700,573 22 7338072 41727
00003.M2TS 4609 (0x1201) 0x90 PGS rus (Russian) 2700,573 22 7338072 41727
<---- END FORUMS PASTE ---->

QUICK SUMMARY:

Disc Title: Kotonoha no Niwa (Blu-Ray)
Disc Size: 37348702448 bytes
Protection: AACS
BD-Java: No
Playlist: 00002.MPLS
Size: 8123585664 bytes
Length: 0:45:11.542
Total Bitrate: 23,97 Mbps
Video: MPEG-4 AVC Video / 21197 kbps / 1080p / 23,976 fps / 16:9 / High Profile 4.1
Audio: Japanese / Dolby Digital Audio / 2.0 / 48 kHz / 384 kbps
Audio: Japanese / Dolby Digital Audio / 2.0 / 48 kHz / 384 kbps
Audio: Japanese / Dolby Digital Audio / 2.0 / 48 kHz / 384 kbps
Audio: Japanese / Dolby Digital Audio / 2.0 / 48 kHz / 384 kbps
Subtitle: Russian / 21,669 kbps
Subtitle: Russian / 21,669 kbps

********************
PLAYLIST: 00003.MPLS
********************

<--- BEGIN FORUMS PASTE --->
Total Video
Title Codec Length Movie Size Disc Size Bitrate Bitrate Main Audio Track Secondary Audio Track
----- ------ ------- -------------- -------------- ------- ------- ------------------ ---------------------
00003.MPLS AVC 0:52:21 11209494528 37348702448 28,55 25,52 DD AC3 2.0 384Kbps
DISC INFO:

Disc Title: Kotonoha no Niwa (Blu-Ray)
Disc Size: 37348702448 bytes
Protection: AACS
BD-Java: No
BDInfo: 0.5.8

PLAYLIST REPORT:

Name: 00003.MPLS
Length: 0:52:21.505 (h:m:s.ms)
Size: 11209494528 bytes
Total Bitrate: 28,55 Mbps

VIDEO:

Codec Bitrate Description
----- ------- -----------
MPEG-4 AVC Video 25517 kbps 1080i / 29,970 fps / 16:9 / High Profile 4.1

AUDIO:

Codec Language Bitrate Description
----- -------- ------- -----------
Dolby Digital Audio Japanese 384 kbps 2.0 / 48 kHz / 384 kbps
Dolby Digital Audio Japanese 384 kbps 2.0 / 48 kHz / 384 kbps
Dolby Digital Audio Japanese 384 kbps 2.0 / 48 kHz / 384 kbps
Dolby Digital Audio Japanese 384 kbps 2.0 / 48 kHz / 384 kbps

SUBTITLES:

Codec Language Bitrate Description
----- -------- ------- -----------
Presentation Graphics Russian 52,805 kbps
Presentation Graphics Russian 52,805 kbps

FILES:

Name Time In Length Size Total Bitrate
---- ------- ------ ---- -------------
00004.M2TS 0:00:00.000 0:52:21.505 11209494528 28546

CHAPTERS:

Number Time In Length Avg Video Rate Max 1-Sec Rate Max 1-Sec Time Max 5-Sec Rate Max 5-Sec Time Max 10Sec Rate Max 10Sec Time Avg Frame Size Max Frame Size Max Frame Time
------ ------- ------ -------------- -------------- -------------- -------------- -------------- -------------- -------------- -------------- -------------- --------------
1 0:00:00.000 0:11:06.999 24721 kbps 60596 kbps 00:08:55.635 34941 kbps 00:00:06.973 31649 kbps 00:07:57.577 103101 bytes 781761 bytes 00:08:06.919
2 0:11:06.999 0:16:41.500 25307 kbps 52109 kbps 00:16:04.496 34284 kbps 00:25:18.016 33244 kbps 00:25:15.847 105552 bytes 785556 bytes 00:14:52.892
3 0:27:48.500 0:07:50.002 26609 kbps 43866 kbps 00:28:19.798 36202 kbps 00:28:15.794 31029 kbps 00:33:29.841 110982 bytes 786496 bytes 00:28:16.795
4 0:35:38.503 0:05:53.720 26145 kbps 35077 kbps 00:40:13.444 30693 kbps 00:39:26.430 28739 kbps 00:39:21.425 109047 bytes 389445 bytes 00:38:22.633
5 0:41:32.223 0:10:49.281 25525 kbps 47038 kbps 00:49:12.582 34501 kbps 00:48:05.349 33643 kbps 00:48:00.344 106468 bytes 786415 bytes 00:49:12.616

STREAM DIAGNOSTICS:

File PID Type Codec Language Seconds Bitrate Bytes Packets
---- --- ---- ----- -------- -------------- -------------- ------------- -----
00004.M2TS 4113 (0x1011) 0x1B AVC 3141,405 25518 10020160950 54512519
00004.M2TS 4352 (0x1100) 0x81 AC3 jpn (Japanese) 3141,405 384 150792192 883548
00004.M2TS 4353 (0x1101) 0x81 AC3 jpn (Japanese) 3141,405 384 150792192 883548
00004.M2TS 4354 (0x1102) 0x81 AC3 jpn (Japanese) 3141,405 384 150792192 883548
00004.M2TS 4355 (0x1103) 0x81 AC3 jpn (Japanese) 3141,405 384 150792192 883548
00004.M2TS 4608 (0x1200) 0x90 PGS rus (Russian) 3141,405 53 20736000 115392
00004.M2TS 4609 (0x1201) 0x90 PGS rus (Russian) 3141,405 53 20736000 115392
<---- END FORUMS PASTE ---->

QUICK SUMMARY:

Disc Title: Kotonoha no Niwa (Blu-Ray)
Disc Size: 37348702448 bytes
Protection: AACS
BD-Java: No
Playlist: 00003.MPLS
Size: 11209494528 bytes
Length: 0:52:21.505
Total Bitrate: 28,55 Mbps
Video: MPEG-4 AVC Video / 25517 kbps / 1080i / 29,970 fps / 16:9 / High Profile 4.1
Audio: Japanese / Dolby Digital Audio / 2.0 / 48 kHz / 384 kbps
Audio: Japanese / Dolby Digital Audio / 2.0 / 48 kHz / 384 kbps
Audio: Japanese / Dolby Digital Audio / 2.0 / 48 kHz / 384 kbps
Audio: Japanese / Dolby Digital Audio / 2.0 / 48 kHz / 384 kbps
Subtitle: Russian / 52,805 kbps
Subtitle: Russian / 52,805 kbps

********************
PLAYLIST: 00004.MPLS
********************

<--- BEGIN FORUMS PASTE --->
Total Video
Title Codec Length Movie Size Disc Size Bitrate Bitrate Main Audio Track Secondary Audio Track
----- ------ ------- -------------- -------------- ------- ------- ------------------ ---------------------
00004.MPLS AVC 0:09:26 2492188224 37348702448 35,21 32,01 DD AC3 2.0 384Kbps
DISC INFO:

Disc Title: Kotonoha no Niwa (Blu-Ray)
Disc Size: 37348702448 bytes
Protection: AACS
BD-Java: No
BDInfo: 0.5.8

PLAYLIST REPORT:

Name: 00004.MPLS
Length: 0:09:26.232 (h:m:s.ms)
Size: 2492188224 bytes
Total Bitrate: 35,21 Mbps

VIDEO:

Codec Bitrate Description
----- ------- -----------
MPEG-4 AVC Video 32015 kbps 1080p / 23,976 fps / 16:9 / High Profile 4.1

AUDIO:

Codec Language Bitrate Description
----- -------- ------- -----------
Dolby Digital Audio Russian 384 kbps 2.0 / 48 kHz / 384 kbps
Dolby Digital Audio Russian 384 kbps 2.0 / 48 kHz / 384 kbps
Dolby Digital Audio Russian 384 kbps 2.0 / 48 kHz / 384 kbps
Dolby Digital Audio Russian 384 kbps 2.0 / 48 kHz / 384 kbps

SUBTITLES:

Codec Language Bitrate Description
----- -------- ------- -----------
Presentation Graphics Russian 0,096 kbps
Presentation Graphics Russian 0,096 kbps

FILES:

Name Time In Length Size Total Bitrate
---- ------- ------ ---- -------------
00005.M2TS 0:00:00.000 0:09:26.232 2492188224 35208

CHAPTERS:

Number Time In Length Avg Video Rate Max 1-Sec Rate Max 1-Sec Time Max 5-Sec Rate Max 5-Sec Time Max 10Sec Rate Max 10Sec Time Avg Frame Size Max Frame Size Max Frame Time
------ ------- ------ -------------- -------------- -------------- -------------- -------------- -------------- -------------- -------------- -------------- --------------
1 0:00:00.000 0:09:25.064 32083 kbps 54107 kbps 00:03:24.746 38035 kbps 00:01:50.151 35745 kbps 00:00:04.254 167256 bytes 815291 bytes 00:00:10.427
2 0:09:25.064 0:00:01.167 28 kbps 31 kbps 00:09:25.064 0 kbps 00:00:00.000 0 kbps 00:00:00.000 161 bytes 660 bytes 00:09:25.606

STREAM DIAGNOSTICS:

File PID Type Codec Language Seconds Bitrate Bytes Packets
---- --- ---- ----- -------- -------------- -------------- ------------- -----
00005.M2TS 4113 (0x1011) 0x1B AVC 566,149 32022 2266152990 12324050
00005.M2TS 4352 (0x1100) 0x81 AC3 rus (Russian) 566,149 384 27179520 159255
00005.M2TS 4353 (0x1101) 0x81 AC3 rus (Russian) 566,149 384 27179520 159255
00005.M2TS 4354 (0x1102) 0x81 AC3 rus (Russian) 566,149 384 27179520 159255
00005.M2TS 4355 (0x1103) 0x81 AC3 rus (Russian) 566,149 384 27179520 159255
00005.M2TS 4608 (0x1200) 0x90 PGS rus (Russian) 566,149 0 6762 44
00005.M2TS 4609 (0x1201) 0x90 PGS rus (Russian) 566,149 0 6762 44
<---- END FORUMS PASTE ---->

QUICK SUMMARY:

Disc Title: Kotonoha no Niwa (Blu-Ray)
Disc Size: 37348702448 bytes
Protection: AACS
BD-Java: No
Playlist: 00004.MPLS
Size: 2492188224 bytes
Length: 0:09:26.232
Total Bitrate: 35,21 Mbps
Video: MPEG-4 AVC Video / 32015 kbps / 1080p / 23,976 fps / 16:9 / High Profile 4.1
Audio: Russian / Dolby Digital Audio / 2.0 / 48 kHz / 384 kbps
Audio: Russian / Dolby Digital Audio / 2.0 / 48 kHz / 384 kbps
Audio: Russian / Dolby Digital Audio / 2.0 / 48 kHz / 384 kbps
Audio: Russian / Dolby Digital Audio / 2.0 / 48 kHz / 384 kbps
Subtitle: Russian / 0,096 kbps
Subtitle: Russian / 0,096 kbps

********************
PLAYLIST: 00006.MPLS
********************

<--- BEGIN FORUMS PASTE --->
Total Video
Title Codec Length Movie Size Disc Size Bitrate Bitrate Main Audio Track Secondary Audio Track
----- ------ ------- -------------- -------------- ------- ------- ------------------ ---------------------
00006.MPLS AVC 0:00:23 22226304 37348702448 7,59 6,57 DD AC3 2.0 384Kbps
DISC INFO:

Disc Title: Kotonoha no Niwa (Blu-Ray)
Disc Size: 37348702448 bytes
Protection: AACS
BD-Java: No
BDInfo: 0.5.8

PLAYLIST REPORT:

Name: 00006.MPLS
Length: 0:00:23.440 (h:m:s.ms)
Size: 22226304 bytes
Total Bitrate: 7,59 Mbps

VIDEO:

Codec Bitrate Description
----- ------- -----------
MPEG-4 AVC Video 6569 kbps 1080p / 23,976 fps / 16:9 / High Profile 4.1

AUDIO:

Codec Language Bitrate Description
----- -------- ------- -----------
Dolby Digital Audio Russian 384 kbps 2.0 / 48 kHz / 384 kbps / DN -4dB

FILES:

Name Time In Length Size Total Bitrate
---- ------- ------ ---- -------------
00007.M2TS 0:00:00.000 0:00:23.440 22226304 7572

CHAPTERS:

Number Time In Length Avg Video Rate Max 1-Sec Rate Max 1-Sec Time Max 5-Sec Rate Max 5-Sec Time Max 10Sec Rate Max 10Sec Time Avg Frame Size Max Frame Size Max Frame Time
------ ------- ------ -------------- -------------- -------------- -------------- -------------- -------------- -------------- -------------- -------------- --------------
1 0:00:00.000 0:00:09.467 2554 kbps 3491 kbps 00:00:00.250 2623 kbps 00:00:00.542 0 kbps 00:00:00.000 13256 bytes 50801 bytes 00:00:09.467
2 0:00:09.467 0:00:09.592 3830 kbps 8149 kbps 00:00:09.467 3985 kbps 00:00:14.055 0 kbps 00:00:00.000 19966 bytes 370516 bytes 00:00:19.060
3 0:00:19.060 0:00:04.379 21315 kbps 44119 kbps 00:00:19.060 0 kbps 00:00:00.000 0 kbps 00:00:00.000 114393 bytes 552304 bytes 00:00:22.355

STREAM DIAGNOSTICS:

File PID Type Codec Language Seconds Bitrate Bytes Packets
---- --- ---- ----- -------- -------------- -------------- ------------- -----
00007.M2TS 4113 (0x1011) 0x1B AVC 23,357 6605 19284098 105135
00007.M2TS 4352 (0x1100) 0x81 AC3 rus (Russian) 23,357 554 1617408 9477
<---- END FORUMS PASTE ---->

QUICK SUMMARY:

Disc Title: Kotonoha no Niwa (Blu-Ray)
Disc Size: 37348702448 bytes
Protection: AACS
BD-Java: No
Playlist: 00006.MPLS
Size: 22226304 bytes
Length: 0:00:23.440
Total Bitrate: 7,59 Mbps
Video: MPEG-4 AVC Video / 6569 kbps / 1080p / 23,976 fps / 16:9 / High Profile 4.1
Audio: Russian / Dolby Digital Audio / 2.0 / 48 kHz / 384 kbps / DN -4dB

********************
PLAYLIST: 00009.MPLS
********************

<--- BEGIN FORUMS PASTE --->
Total Video
Title Codec Length Movie Size Disc Size Bitrate Bitrate Main Audio Track Secondary Audio Track
----- ------ ------- -------------- -------------- ------- ------- ------------------ ---------------------
00009.MPLS AVC 0:46:00 14868059328 37348702448 43,09 28,14 LPCM 2.0 2304Kbps (48kHz/24-bit) DTS-HD Master 5.1 3779Kbps (48kHz/24-bit)
DISC INFO:

Disc Title: Kotonoha no Niwa (Blu-Ray)
Disc Size: 37348702448 bytes
Protection: AACS
BD-Java: No
BDInfo: 0.5.8

PLAYLIST REPORT:

Name: 00009.MPLS
Length: 0:46:00.549 (h:m:s.ms)
Size: 14868059328 bytes
Total Bitrate: 43,09 Mbps

VIDEO:

Codec Bitrate Description
----- ------- -----------
MPEG-4 AVC Video 28140 kbps 1080p / 23,976 fps / 16:9 / High Profile 4.1

AUDIO:

Codec Language Bitrate Description
----- -------- ------- -----------
LPCM Audio Russian 2304 kbps 2.0 / 48 kHz / 2304 kbps / 24-bit
DTS-HD Master Audio Russian 3779 kbps 5.1 / 48 kHz / 3779 kbps / 24-bit (DTS Core: 5.1 / 48 kHz / 1509 kbps / 24-bit)
LPCM Audio Japanese 2304 kbps 2.0 / 48 kHz / 2304 kbps / 24-bit
DTS-HD Master Audio Japanese 3758 kbps 5.1 / 48 kHz / 3758 kbps / 24-bit (DTS Core: 5.1 / 48 kHz / 1509 kbps / 24-bit)
Dolby Digital Audio Japanese 256 kbps 2.0 / 48 kHz / 256 kbps

SUBTITLES:

Codec Language Bitrate Description
----- -------- ------- -----------
Presentation Graphics Russian 4,678 kbps
Presentation Graphics Russian 26,435 kbps
Presentation Graphics Russian 54,428 kbps

FILES:

Name Time In Length Size Total Bitrate
---- ------- ------ ---- -------------
00000.M2TS 0:00:00.000 0:46:00.549 14868059328 43087

CHAPTERS:

Number Time In Length Avg Video Rate Max 1-Sec Rate Max 1-Sec Time Max 5-Sec Rate Max 5-Sec Time Max 10Sec Rate Max 10Sec Time Avg Frame Size Max Frame Size Max Frame Time
------ ------- ------ -------------- -------------- -------------- -------------- -------------- -------------- -------------- -------------- -------------- --------------
1 0:00:00.000 0:00:17.308 11721 kbps 35607 kbps 00:00:06.631 25341 kbps 00:00:04.629 20173 kbps 00:00:00.375 60961 bytes 282707 bytes 00:00:08.550
2 0:00:17.308 0:04:59.465 29299 kbps 47300 kbps 00:05:11.352 35424 kbps 00:01:06.941 33788 kbps 00:02:10.797 152752 bytes 926103 bytes 00:02:55.758
3 0:05:16.774 0:04:53.251 26629 kbps 47841 kbps 00:06:48.866 34371 kbps 00:05:17.942 32608 kbps 00:08:01.314 138831 bytes 932118 bytes 00:09:57.179
4 0:10:10.026 0:03:00.680 28997 kbps 47877 kbps 00:12:07.560 35660 kbps 00:11:49.083 33940 kbps 00:12:12.690 151179 bytes 917957 bytes 00:11:17.843
5 0:13:10.706 0:05:19.193 28328 kbps 46539 kbps 00:18:21.100 35261 kbps 00:15:15.456 33879 kbps 00:15:15.456 147687 bytes 935449 bytes 00:16:33.033
6 0:18:29.900 0:06:49.784 27752 kbps 49187 kbps 00:23:53.807 35339 kbps 00:23:52.889 33835 kbps 00:21:32.708 144688 bytes 933461 bytes 00:18:50.921
7 0:25:19.684 0:04:02.242 25953 kbps 42321 kbps 00:26:47.647 33233 kbps 00:26:47.647 31986 kbps 00:27:17.886 135309 bytes 931743 bytes 00:27:10.503
8 0:29:21.926 0:07:45.465 28182 kbps 48671 kbps 00:31:53.953 35974 kbps 00:32:21.481 33630 kbps 00:33:45.606 146928 bytes 934378 bytes 00:33:28.965
9 0:37:07.391 0:03:27.332 29967 kbps 43738 kbps 00:37:51.018 35135 kbps 00:39:58.270 33559 kbps 00:39:57.436 156233 bytes 784240 bytes 00:40:34.682
10 0:40:34.723 0:04:19.801 30312 kbps 49113 kbps 00:44:48.477 35496 kbps 00:42:58.534 33250 kbps 00:43:45.164 158035 bytes 905039 bytes 00:40:59.081
11 0:44:54.525 0:01:03.813 27422 kbps 46425 kbps 00:45:35.607 35873 kbps 00:45:05.160 33510 kbps 00:45:05.160 142967 bytes 886971 bytes 00:45:16.755
12 0:45:58.338 0:00:02.210 29 kbps 36 kbps 00:45:58.964 0 kbps 00:00:00.000 0 kbps 00:00:00.000 162 bytes 676 bytes 00:45:59.173

STREAM DIAGNOSTICS:

File PID Type Codec Language Seconds Bitrate Bytes Packets
---- --- ---- ----- -------- -------------- -------------- ------------- -----
00000.M2TS 4113 (0x1011) 0x1B AVC 2760,466 28141 9710330637 52813092
00000.M2TS 4352 (0x1100) 0x80 LPCM rus (Russian) 2760,466 2315 798800584 4425488
00000.M2TS 4353 (0x1101) 0x86 DTS-HD MA rus (Russian) 2760,466 3780 1304166400 7517745
00000.M2TS 4354 (0x1102) 0x80 LPCM jpn (Japanese) 2760,466 2315 798800584 4425488
00000.M2TS 4355 (0x1103) 0x86 DTS-HD MA jpn (Japanese) 2760,466 3758 1296899352 7479061
00000.M2TS 4356 (0x1104) 0x81 AC3 jpn (Japanese) 2760,466 257 88509440 518610
00000.M2TS 4608 (0x1200) 0x90 PGS rus (Russian) 2760,466 5 1614275 9055
00000.M2TS 4609 (0x1201) 0x90 PGS rus (Russian) 2760,466 26 9121952 51681
00000.M2TS 4610 (0x1202) 0x90 PGS rus (Russian) 2760,466 54 18781511 104916
<---- END FORUMS PASTE ---->

QUICK SUMMARY:

Disc Title: Kotonoha no Niwa (Blu-Ray)
Disc Size: 37348702448 bytes
Protection: AACS
BD-Java: No
Playlist: 00009.MPLS
Size: 14868059328 bytes
Length: 0:46:00.549
Total Bitrate: 43,09 Mbps
Video: MPEG-4 AVC Video / 28140 kbps / 1080p / 23,976 fps / 16:9 / High Profile 4.1
Audio: Russian / LPCM Audio / 2.0 / 48 kHz / 2304 kbps / 24-bit
Audio: Russian / DTS-HD Master Audio / 5.1 / 48 kHz / 3779 kbps / 24-bit (DTS Core: 5.1 / 48 kHz / 1509 kbps / 24-bit)
Audio: Japanese / LPCM Audio / 2.0 / 48 kHz / 2304 kbps / 24-bit
Audio: Japanese / DTS-HD Master Audio / 5.1 / 48 kHz / 3758 kbps / 24-bit (DTS Core: 5.1 / 48 kHz / 1509 kbps / 24-bit)
Audio: Japanese / Dolby Digital Audio / 2.0 / 48 kHz / 256 kbps
Subtitle: Russian / 4,678 kbps
Subtitle: Russian / 26,435 kbps
Subtitle: Russian / 54,428 kbps

********************
PLAYLIST: 00010.MPLS
********************

<--- BEGIN FORUMS PASTE --->
Total Video
Title Codec Length Movie Size Disc Size Bitrate Bitrate Main Audio Track Secondary Audio Track
----- ------ ------- -------------- -------------- ------- ------- ------------------ ---------------------
00010.MPLS AVC 0:01:29 366532608 37348702448 32,90 18,41 LPCM 2.0 2304Kbps (48kHz/24-bit) DTS-HD Master 5.1 3940Kbps (48kHz/24-bit)
DISC INFO:

Disc Title: Kotonoha no Niwa (Blu-Ray)
Disc Size: 37348702448 bytes
Protection: AACS
BD-Java: No
BDInfo: 0.5.8

PLAYLIST REPORT:

Name: 00010.MPLS
Length: 0:01:29.130 (h:m:s.ms)
Size: 366532608 bytes
Total Bitrate: 32,90 Mbps

VIDEO:

Codec Bitrate Description
----- ------- -----------
MPEG-4 AVC Video 18408 kbps 1080p / 23,976 fps / 16:9 / High Profile 4.1

AUDIO:

Codec Language Bitrate Description
----- -------- ------- -----------
LPCM Audio Japanese 2304 kbps 2.0 / 48 kHz / 2304 kbps / 24-bit
DTS-HD Master Audio Japanese 3940 kbps 5.1 / 48 kHz / 3940 kbps / 24-bit (DTS Core: 5.1 / 48 kHz / 1152 kbps / 24-bit)
LPCM Audio Japanese 2304 kbps 2.0 / 48 kHz / 2304 kbps / 24-bit
DTS-HD Master Audio Japanese 3940 kbps 5.1 / 48 kHz / 3940 kbps / 24-bit (DTS Core: 5.1 / 48 kHz / 1152 kbps / 24-bit)

SUBTITLES:

Codec Language Bitrate Description
----- -------- ------- -----------
Presentation Graphics Russian 49,320 kbps
Presentation Graphics Russian 49,320 kbps

FILES:

Name Time In Length Size Total Bitrate
---- ------- ------ ---- -------------
00008.M2TS 0:00:00.000 0:01:29.130 366532608 32898

CHAPTERS:

Number Time In Length Avg Video Rate Max 1-Sec Rate Max 1-Sec Time Max 5-Sec Rate Max 5-Sec Time Max 10Sec Rate Max 10Sec Time Avg Frame Size Max Frame Size Max Frame Time
------ ------- ------ -------------- -------------- -------------- -------------- -------------- -------------- -------------- -------------- -------------- --------------
1 0:00:00.000 0:01:29.130 18408 kbps 56321 kbps 00:01:00.894 40684 kbps 00:00:12.762 32594 kbps 00:00:12.095 95972 bytes 840332 bytes 00:00:14.764

STREAM DIAGNOSTICS:

File PID Type Codec Language Seconds Bitrate Bytes Packets
---- --- ---- ----- -------- -------------- -------------- ------------- -----
00008.M2TS 4113 (0x1011) 0x1B AVC 88,964 18443 205091465 1115876
00008.M2TS 4352 (0x1100) 0x80 LPCM jpn (Japanese) 88,964 2315 25740744 142608
00008.M2TS 4353 (0x1101) 0x86 DTS-HD MA jpn (Japanese) 88,964 3947 43895384 249038
00008.M2TS 4354 (0x1102) 0x80 LPCM jpn (Japanese) 88,964 2326 25862040 143280
00008.M2TS 4355 (0x1103) 0x86 DTS-HD MA jpn (Japanese) 88,964 3947 43895384 249038
00008.M2TS 4608 (0x1200) 0x90 PGS rus (Russian) 88,964 49 549490 3065
00008.M2TS 4609 (0x1201) 0x90 PGS rus (Russian) 88,964 49 549490 3065
<---- END FORUMS PASTE ---->

QUICK SUMMARY:

Disc Title: Kotonoha no Niwa (Blu-Ray)
Disc Size: 37348702448 bytes
Protection: AACS
BD-Java: No
Playlist: 00010.MPLS
Size: 366532608 bytes
Length: 0:01:29.130
Total Bitrate: 32,90 Mbps
Video: MPEG-4 AVC Video / 18408 kbps / 1080p / 23,976 fps / 16:9 / High Profile 4.1
Audio: Japanese / LPCM Audio / 2.0 / 48 kHz / 2304 kbps / 24-bit
Audio: Japanese / DTS-HD Master Audio / 5.1 / 48 kHz / 3940 kbps / 24-bit (DTS Core: 5.1 / 48 kHz / 1152 kbps / 24-bit)
Audio: Japanese / LPCM Audio / 2.0 / 48 kHz / 2304 kbps / 24-bit
Audio: Japanese / DTS-HD Master Audio / 5.1 / 48 kHz / 3940 kbps / 24-bit (DTS Core: 5.1 / 48 kHz / 1152 kbps / 24-bit)
Subtitle: Russian / 49,320 kbps
Subtitle: Russian / 49,320 kbps
<a href="viewtopic.php?t=4427933" class="postLink">4427933</a>, <a href="viewtopic.php?t=4458990" class="postLink">4458990</a>, <a href="viewtopic.php?t=4459010" class="postLink">4459010</a>, <a href="viewtopic.php?t=4464520" class="postLink">4464520</a>: Blu-Ray, 1080p, ;
<a href="viewtopic.php?t=4455613" class="postLink">4455613</a>, <a href="viewtopic.php?t=4463821" class="postLink">4463821</a>, <a href="viewtopic.php?t=4474611" class="postLink">4474611</a>: Blu-Ray, ;
<a href="viewtopic.php?t=4474518" class="postLink">4474518</a>, <a href="viewtopic.php?t=4852013" class="postLink">4852013</a>, <a href="viewtopic.php?t=4942065" class="postLink">4942065</a>, <a href="viewtopic.php?t=4958469" class="postLink">4958469</a>: Blu-Ray.


 ·  , , FAQ-
:  [ 02--2016 23:00 ]

  

.torrent

.torrent 48 KB


: 34.78 GB
(hash) : 215128c59ebc5d0f744b957817615ca6bcb3008c
:
··
...

, Kotonoha no Niwa

S L
| DVD ··  / Kotonoha no Niwa / The Garden of Words [Movie] [RUS, JAP+SUB] [2013, , ] [DVD9] Galfimbul 80997191687.54 GB 0 0 1496966330

02:58

9--17

| DVD ··  / Kotonoha no Niwa / The Garden of Words [Movie] [RUS, JAP+SUB] [2013 ., , ] [DVD9] Galfimbul 80997191687.54 GB 0 0 1472850164

00:02

3--16

| Rips ··  / Kotonoha no Niwa / The Garden of Words ( ) [Movie] [ ] [RUS(ext), JAP+SUB] [2013 ., , , BDRip] [1080p] Galfimbul 23543917372.19 GB 0 0 1427924686

00:44

2--15

| DVD ··  / Kotonoha no Niwa / The Garden of Words [Movie] [JAP, RUS, SUB] [2013 ., , ] [DVD9] Polarnik 54015856645.03 GB 0 0 1381048814

11:40

6--13

| Rips ··  / / Kotonoha no Niwa / The Garden of Words [Movie] [ ] [RUS(int), JAP+SUB] [2013 ., , , BDRip] [720p] [HD] Galfimbul 21562424722.01 GB 0 0 1414416882

16:34

27--14

| HD Rips ··  / / Kotonoha no Niwa / The Garden of Words [Movie] [ ] [RUS(int), JAP+SUB] [2013 ., , , BDRemux] [1080p] Galfimbul 1231331365611.47 GB 0 0 1414109009

03:03

24--14

| HD Rips ··  / Kotonoha no Niwa / The Garden of Words ( ) [Movie] [ ] [RUS(ext),JAP+SUB] [2013, , , BDRip] [1080p] Galfimbul 70244160316.54 GB 0 0 1488032925

17:28

25--17

| HD Rips ··  / Kotonoha no Niwa / The Garden of Words [Movie] [ ] [RUS(int), JAP, SUB] [2013 ., , , BDRip] [1080p] [HEVC] Galfimbul 18995850861.77 GB 0 0 1424158953

10:42

17--15

| HD Rips ··  / The Garden of Words / Kotonoha no Niwa [Movie] [ ] [JAP, RUS(ext), SUB(ext)] [2013 ., , , BDRip] [1080p] Galfimbul 28652617842.67 GB 0 0 1426351736

19:48

14--15

| Rips ··  / The Garden of Words / Kotonoha no Niwa [Movie] [Rus, Sub (rus, eng)] [2013, , , BDRip-AVC] Polarnik 10913816281.02 GB 0 0 1379269801

21:30

15--13

| HD Rips ··  / The Garden of Words / Kotonoha no Niwa ( ) [Movie] [ ] [RUS(int), JAP+SUB] [2013 ., , , BDRip] [720p] Polarnik 16451250421.53 GB 0 0 1371155542

23:32

13--13

| HD Rips ··  / The Garden of Words / Kotonoha no Niwa ( ) [Movie] [ ] [RUS(ext), JAP+SUB] [2013 ., , , BDRip] [720p] Polarnik 15119409331.41 GB 0 0 1370420629

11:23

5--13

| HD Rips ··  / The Garden of Words / Kotonoha no Niwa ( ) [Movie] [ ] [JAP+SUB] [2013 ., , , BDRip] [1080p] Polarnik 24664101372.3 GB 0 0 1370291438

23:30

3--13

| HD Rips ··  / The Garden of Words / Kotonoha no Niwa ( ) [Movie] [ ] [JAP+SUB] [2013 ., , , BDRip] [720p] L 969640828925 MB 0 0 1370205802

23:43

2--13

Kotonoha no Niwa . !

!