Скачать через торрент музыку Музыка кино Сергея Соловьева бесплатно без регистрации torrent

Если у вас наблюдаются проблемы со скриншотами, переходом по ссылками, скачиванием торрентов - проблемы в блокировщике рекламы AdBlock. #хорошегоДня!


Статистика раздачи
Размер:  419 MB   |    Зарегистрирован:  1 год   |    .torrent скачан:  19 раз   |   
Раздают:  1  
   
Загрузка...
 
Автор Сообщение

Galfimbul

avatar Galfimbul


Музыка кино Сергея Соловьева

Жанр: Soundtrack
Композиторы: Борис Гребенщиков, Исаак Шварц, Сергей Курехин
Год выпуска диска: 1997
Страна-производитель диска: Швеция
Издатель (лейбл): L-Junction
Номер по каталогу: LJ CD 012
Аудиокодек: FLAC (*.flac)
Тип рипа: image+.cue
Битрейт аудио: lossless
Продолжительность: 1:12:27
Источник: собственный рип
Наличие сканов в содержимом раздачи: да
Борис Гребенщиков

«АССА»
01. Город золотой (2:39)
02. Плоскость (4:51)
«Черная роза – эмблема печали, красная роза – эмблема любви»
03. Сарданапал (1:25)
04. Лой Быканах (3:51)
05. Корабль уродов (4:43)
«Дом под звездным небом»
06. Голубой дворник (4:58)
07. О лебеде (7:27)

Исаак Шварц

«Егор Булычев»
08. Пролог. Вальс (2:37)
09. Газовая атака. Канкан (2:59)
«Станционный смотритель»
10. Романс Минского (2:35)
«Сто дней после детства»
11. Вальс (2:15)
«Избранные»
12. Ветер (2:20)
«Мелодии белой ночи»
13. Фортепианный концерт (3:25)
14. Праздничный ночной фейерверк (3:51)
«Дядя Ваня»
15. Романс на стихи Ивана Бунина и Финал (6:32)

Сергей Курехин

«Три сестры»
16. Пролог (4:30)
«Чайка»
17. Пролог и Маленький вальс (2:50)
18. Опера (1:01)
19. Романс (3:33)
20. Финал и Большой трагический вальс (4:05)
Exact Audio Copy V1.0 beta 4 from 7. December 2014

EAC extraction logfile from 31. March 2015, 19:44

Разные исполнители / Музыка кино Сергея Соловьева

Used drive : SlimtypeDVD A DS8A8SH Adapter: 1 ID: 0

Read mode : SecureUtilize accurate stream : YesDefeat audio cache : YesMake use of C2 pointers : No

Read offset correction : 6Overread into Lead-In and Lead-Out : NoFill up missing offset samples with silence : YesDelete leading and trailing silent blocks : NoNull samples used in CRC calculations : YesUsed interface : Native Win32 interface for Win NT & 2000

Used output format : User Defined EncoderSelected bitrate : 896 kBit/sQuality : HighAdd ID3 tag : NoCommand line compressor : C:\Program Files (x86)\Exact Audio Copy\FLAC\FLAC.EXEAdditional command line options : -V -8 -T "Date=%year%" -T "Genre=%genre%" %source%

TOC of the extracted CD

Track | Start | Length | Start sector | End sector --------------------------------------------------------- 1 | 0:00.00 | 2:39.10 | 0 | 11934 2 | 2:39.10 | 4:51.17 | 11935 | 33776 3 | 7:30.27 | 1:25.33 | 33777 | 40184 4 | 8:55.60 | 3:50.45 | 40185 | 57479 5 | 12:46.30 | 4:42.57 | 57480 | 78686 6 | 17:29.12 | 4:57.50 | 78687 | 101011 7 | 22:26.62 | 7:26.53 | 101012 | 134514 8 | 29:53.40 | 2:37.35 | 134515 | 146324 9 | 32:31.00 | 2:58.60 | 146325 | 159734 10 | 35:29.60 | 2:35.20 | 159735 | 171379 11 | 38:05.05 | 2:14.57 | 171380 | 181486 12 | 40:19.62 | 2:19.63 | 181487 | 191974 13 | 42:39.50 | 3:25.17 | 191975 | 207366 14 | 46:04.67 | 3:51.23 | 207367 | 224714 15 | 49:56.15 | 6:32.35 | 224715 | 254149 16 | 56:28.50 | 4:29.55 | 254150 | 274379 17 | 60:58.30 | 2:49.67 | 274380 | 287121 18 | 63:48.22 | 1:00.65 | 287122 | 291686 19 | 64:49.12 | 3:32.53 | 291687 | 307639 20 | 68:21.65 | 4:05.20 | 307640 | 326034

Range status and errors

Selected range

Filename D:\Аквариум и БГ\(1997) Разные исполнители - Музыка кино Сергея Соловьева [LJ CD 012]\Разные исполнители - Музыка кино Сергея Соловьева.wav

Peak level 87.0 % Extraction speed 3.4 X Range quality 100.0 % Test CRC 06E40C39 Copy CRC 06E40C39 Copy OK

No errors occurred

AccurateRip summary

Track 1 accurately ripped (confidence 2) [3FF6C931] (AR v1)Track 2 accurately ripped (confidence 2) [1EC6BB29] (AR v1)Track 3 accurately ripped (confidence 2) [B85ABC79] (AR v1)Track 4 accurately ripped (confidence 2) [937F297E] (AR v1)Track 5 accurately ripped (confidence 2) [15418FC9] (AR v1)Track 6 accurately ripped (confidence 2) [564D6EC6] (AR v1)Track 7 accurately ripped (confidence 2) [90AD6DBB] (AR v1)Track 8 accurately ripped (confidence 2) [B2083A28] (AR v1)Track 9 accurately ripped (confidence 2) [9A5D48AB] (AR v1)Track 10 accurately ripped (confidence 2) [9F8C3D39] (AR v1)Track 11 accurately ripped (confidence 2) [EA7A50A6] (AR v1)Track 12 accurately ripped (confidence 2) [AC8B71F6] (AR v1)Track 13 accurately ripped (confidence 2) [698BADBF] (AR v1)Track 14 accurately ripped (confidence 2) [233EB773] (AR v1)Track 15 accurately ripped (confidence 2) [454FAAE6] (AR v1)Track 16 accurately ripped (confidence 2) [E7BAB28D] (AR v1)Track 17 accurately ripped (confidence 2) [42F203AE] (AR v1)Track 18 accurately ripped (confidence 2) [FFBEB5C7] (AR v1)Track 19 accurately ripped (confidence 2) [FB778763] (AR v1)Track 20 accurately ripped (confidence 2) [A605D361] (AR v1)

All tracks accurately ripped

End of status report

---- CUETools DB Plugin V2.1.4

[CTDB TOCID: vmbxAnzs.VRYP_svY7lblzC7sxw-] foundSubmit result: vmbxAnzs.VRYP_svY7lblzC7sxw- has been confirmedTrack | CTDB Status 1 | (1/1) Accurately ripped 2 | (1/1) Accurately ripped 3 | (1/1) Accurately ripped 4 | (1/1) Accurately ripped 5 | (1/1) Accurately ripped 6 | (1/1) Accurately ripped 7 | (1/1) Accurately ripped 8 | (1/1) Accurately ripped 9 | (1/1) Accurately ripped 10 | (1/1) Accurately ripped 11 | (1/1) Accurately ripped 12 | (1/1) Accurately ripped 13 | (1/1) Accurately ripped 14 | (1/1) Accurately ripped 15 | (1/1) Accurately ripped 16 | (1/1) Accurately ripped 17 | (1/1) Accurately ripped 18 | (1/1) Accurately ripped 19 | (1/1) Accurately ripped 20 | (1/1) Accurately ripped

==== Log checksum 2FCDB3EA0CCBE52AC480ABDFB81F3AB290B5958D64044CFBF99F9E386CD28A66 ====


Трекер:  [ 28-Авг-2016 12:00 ]

  

Скачать .torrent

Размер .torrent файла 17 KB


Размер: 419 MB
Хэш (hash) релиза: 86db4e306345c134722dd60d7a34f8e9133b08c1

Еще никто не оставлял запись к записи скачать торрент Музыка кино Сергея Соловьева . Будь первым!

!Обратная связь