Скачать через торрент Мисс Монохром 2 Miss Monochrome The Animation 2 бесплатно Аниме Все серии на русском torrent

Если у вас наблюдаются проблемы со скриншотами, переходом по ссылками, скачиванием торрентов - проблемы в блокировщике рекламы AdBlock. #хорошегоДня!


Статистика раздачи
Размер:  3.12 GB   |    Зарегистрирован:  1 год   |    .torrent скачан:  16 раз   |   
Раздают:  1  
   
Загрузка...
 
Автор Сообщение

Galfimbul

avatar Galfimbul


Мисс Монохром 2 / Miss Monochrome The Animation 2

Страна: Япония
Год выпуска: 2015 г.
Жанр: повседневность, музыкальный
Тип: TV
Продолжительность: 13 эп., ~8 мин. серия
Режиссер: Ивасаки Ёсиаки
Студия: Liden Films & Sanzigen

Описание: Поп-идолом быть нелегко, особенно трудно новичкам. Конечно, сам себя раскрути, разрекламируй, а потом уж пожинай плоды популярности. Одного таланта, мягко говоря, маловато, чтобы стать суперзвездой. Каждая первая дама здесь одаренная, этим уже давно никого не удивишь. Здесь главное удача, которая улыбается лишь целеустремленным личностям. Таким, как Мисс Монохром! Целеустремленности у нашей без эмоциональной звезды хоть отбавляй, ведь цель №1 для неё – превзойти мега-популярную Кикуко. Не идут дела так радужно. И играла в сериале, и пела, и крутилась, словно белка в колесе, наша Монохром, вот только с цели совершенно не сдвинулась. На помощь приходит Ру-тян, которая и подсказывает довольно нехитрый ход. Легко сказать, вот только, так ли легко набрать побольше фанатов, организовать тур и новые альбомы в кратчайшие сроки? Даже самому идолу необходимо знать, как всё это сделать. Какую акцию провести, какой тур и где нужно организовать, каких людей привлечь в команду. Не только менеджер должен заботиться об этом. Мисс Монохром может и целеустремлённая красивая особа, вот только в этих тонкостях на не сильна. Как и её менеджер… Путь к славе никогда не был легок и безоблачен, как бы Монохром этого ни хотела.

Качество: BDRip (gt35)
Тип релиза: Без хардсаба
Формат видео: MKV
Видео: AVC (10 bit), 1280x720, 3899 kbps, 23.976 fps
Аудио: AAC, 200 kbps, 48.0 kHz, 2 ch Язык Японский
Аудио 2: AAC, 192 kbps, 48.0 kHz, 2 ch Язык Русский (внешним файлом) ; Озвучка: двухголосная (муж./жен.), Snowly & Aska (SHIZA Project)
Субтитры: ASS, внешние, полные | надписи «Timecraft» Язык субтитров русский ; Переводчик/Оформление: Elven_tankman | Редактор: Buka63
от
<a href="viewtopic.php?t=5087029" class="postLink">...5087029</a>
<a href="viewtopic.php?t=5037497" class="postLink">...5037497</a>
-BDRip
GeneralUnique ID : 202460621927589597703434030487174046855 (0x98507F57C43A82969EFC07534D6EE487)Complete name : Miss Monochrome\Miss Monochrome The Animation 2 [BD] [720p]\[gt35] Miss Monochrome The Animation 2 [01] [BDRip, 720p, AAC].mkvFormat : MatroskaFormat version : Version 4 / Version 2File size : 230 MiBDuration : 7mn 50sOverall bit rate : 4 101 KbpsEncoded date : UTC 2016-08-24 06:41:23Writing application : mkvmerge v9.4.0 ('Knurl') 64bitWriting library : libebml v1.3.4 + libmatroska v1.4.5

VideoID : 1Format : AVCFormat/Info : Advanced Video CodecFormat profile : High 10@L5.1Format settings, CABAC : YesFormat settings, ReFrames : 11 framesCodec ID : V_MPEG4/ISO/AVCDuration : 7mn 50sBit rate : 3 899 KbpsWidth : 1 280 pixelsHeight : 720 pixelsDisplay aspect ratio : 16:9Frame rate mode : ConstantFrame rate : 23.976 (24000/1001) fpsColor space : YUVChroma subsampling : 4:2:0Bit depth : 10 bitsScan type : ProgressiveBits/(Pixel*Frame) : 0.176Stream size : 219 MiB (95%)Writing library : x264 core 148 r2638 7599210Encoding settings : cabac=1 / ref=11 / deblock=1:-2:-2 / analyse=0x3:0x133 / me=umh / subme=9 / psy=1 / psy_rd=1.00:0.00 / mixed_ref=1 / me_range=24 / chroma_me=1 / trellis=2 / 8x8dct=1 / cqm=0 / deadzone=21,11 / fast_pskip=0 / chroma_qp_offset=-2 / threads=6 / lookahead_threads=1 / sliced_threads=0 / nr=0 / decimate=1 / interlaced=0 / bluray_compat=0 / constrained_intra=0 / bframes=8 / b_pyramid=2 / b_adapt=2 / b_bias=0 / direct=3 / weightb=1 / open_gop=0 / weightp=2 / keyint=240 / keyint_min=23 / scenecut=40 / intra_refresh=0 / rc_lookahead=40 / rc=crf / mbtree=1 / crf=14.7 / qcomp=0.72 / qpmin=0 / qpmax=40 / qpstep=4 / vbv_maxrate=300000 / vbv_bufsize=300000 / crf_max=0.0 / nal_hrd=none / filler=0 / ip_ratio=1.40 / aq=1:1.20Language : JapaneseDefault : YesForced : No

AudioID : 2Format : AACFormat/Info : Advanced Audio CodecFormat profile : LCCodec ID : A_AACDuration : 7mn 50sBit rate : 200 KbpsChannel(s) : 2 channelsChannel positions : Front: L RSampling rate : 48.0 KHzFrame rate : 46.875 fps (1024 spf)Compression mode : LossyDelay relative to video : 9msStream size : 11.2 MiB (5%)Language : JapaneseDefault : YesForced : No
01. Новый старт
02. Промоутер
03. Гитаристка
04. Сувениры
05. Поиски талантов
06. Кульминация
07. Заново
08. Реквием
09. Популярность
10. Семнадцать
11. Внутренний мир
12. Кризис4696
13. Монохром²


Трекер:  [ 25-Авг-2016 14:30 ]

  

Скачать .torrent

Размер .torrent файла 22 KB


Размер: 3.12 GB
Хэш (hash) релиза: 1a81a126ac9913ddfcc409cb8dbffeddb3be261a
Подписка на обновления:

Еще никто не оставлял запись к записи скачать торрент Мисс Монохром 2 Miss Monochrome The Animation 2 . Будь первым!

!Обратная связь