Скачать через торрент Моя история!! Ore Monogatari!! бесплатно Аниме Все серии на русском torrent

Если у вас наблюдаются проблемы со скриншотами, переходом по ссылками, скачиванием торрентов - проблемы в блокировщике рекламы AdBlock. #хорошегоДня!


Статистика раздачи
Размер:  5.67 GB   |    Зарегистрирован:  1 год 1 месяц   |    .torrent скачан:  9 раз   |   
Раздают:  1  
   
Загрузка...
 
Автор Сообщение

Galfimbul

avatar Galfimbul



Моя история!! / Ore Monogatari!! / 俺物語!!
Страна: Япония
Год выпуска: 2015 г.
Жанр: комедия, романтика, сёдзё
Тип: TV
Продолжительность: 24 эп. по ~ 23 мин
Режиссер: Асака Морио
Студия: Madhouse
Перевод:
<ol class="post-ul">
русские субтитры: [Натилия Ишова & Enzexanadu] (внешним файлом).
</ol>



Описание: Десятиклассник Такэо Года получил от природы лицо древнего самурая, фигуру матерого культуриста и душу невинного ребенка. Среди парней старшей школы Сюэй брутальный герой одним видом вызывает уважение, а вот девушки, только глянув на «гориллу», автоматически переключаются на его спутника, неотразимого блондина Макото Сунакаву. Честный и справедливый Макото, болея душой за лучшего друга, неизменно отказывает во внимании столь недалеким особам, но и он уже разуверился, что ровесницы способны оценить Такэо по достоинству.

В мире возможно все! Так и сейчас, стоило неразлучным парням в дни цветения сакуры помочь незнакомке - и чуткий Макото сразу понял, что благодарит она не из простой вежливости. Да, милая малышка Ринко Ямато с первого взгляда полюбила своего могучего рыцаря, с исконной женской мудростью заглянув за страшноватый фасад. Бедная девушка! Мало того, что до двухметрового Годо ситуация доходила очень долго, так потом он вообразил себя средневековым воителем, не смеющим даже мыслями о «недостойном» подвергнуть сомнению чистоту своей дамы сердца. Ничего, тысячу лет назад с таким справлялись – справятся и сейчас!

© Hollow, World Art
Качество: BDRip
Тип релиза: Без хардсаба
Формат видео: MKV
Наличие линковки: Нет
Релиз/Автор рипа: [FFF]
Видео: x264, 1280x720, 2662 Kbps, 23.976 fps, 10 bit
Аудио: JAP, AAC, 233 kbps, 48000 Hz, 2ch
GeneralUnique ID : 219263674687627562136234794690585440512 (0xA4F4A5CE56B38E4DA39ABE8102DE3100)Complete name : D:\[FFF] Ore Monogatari!! [BD][720p]\[FFF] Ore Monogatari!! - 01 [BD][720p - AAC].mkvFormat : MatroskaFormat version : Version 4 / Version 2File size : 476 MiBDuration : 22 minOverall bit rate : 2 905 kb/sEncoded date : UTC 2016-08-02 17:30:03Writing application : mkvmerge v9.3.1 ('Mask Machine') 64bitWriting library : libebml v1.3.4 + libmatroska v1.4.5Attachments : CHINELABRUSH.TTF / corbel.ttf / FOTKAFUTECHNOSTDSTRP-U.OTF / HUMANASANSMDITCTTMEDIUM.TTF / PICKAX.TTF / QUAYSANSMDITCTT.TTF / QUAYSANSMDITCTTITALIC.TTF / ROBOTO-BOLD.TTF / BEEMARKERINK.TTF / BLOKLETTERSVILTSTIFTFXD-VILTSTIFT.TTF / BRANDON-TEXTBLACK.TTF / BRUSH-HYOUKA.TTF / BRUSHTYPE-SEMIBOLD.TTF

VideoID : 1Format : AVCFormat/Info : Advanced Video CodecFormat profile : High 10@L5Format settings, CABAC : YesFormat settings, ReFrames : 16 framesCodec ID : V_MPEG4/ISO/AVCDuration : 22 minBit rate : 2 662 kb/sWidth : 1 280 pixelsHeight : 720 pixelsDisplay aspect ratio : 16:9Frame rate mode : ConstantFrame rate : 23.976 (24000/1001) FPSColor space : YUVChroma subsampling : 4:2:0Bit depth : 10 bitsScan type : ProgressiveBits/(Pixel*Frame) : 0.120Stream size : 436 MiB (92%)Title : 10bit H.264 - 720pWriting library : x264 core 148 r2665kMod a01e339Encoding settings : cabac=1 / ref=16 / deblock=1:1:1 / analyse=0x3:0x133 / me=umh / subme=11 / psy=1 / fade_compensate=0.00 / psy_rd=0.68:0.00 / mixed_ref=1 / me_range=24 / chroma_me=1 / trellis=2 / 8x8dct=1 / cqm=0 / deadzone=21,11 / fast_pskip=0 / chroma_qp_offset=-2 / threads=22 / lookahead_threads=5 / sliced_threads=0 / nr=0 / decimate=1 / interlaced=0 / bluray_compat=0 / constrained_intra=0 / fgo=0 / bframes=16 / b_pyramid=2 / b_adapt=2 / b_bias=0 / direct=3 / weightb=1 / open_gop=0 / weightp=2 / keyint=250 / keyint_min=23 / scenecut=40 / intra_refresh=0 / rc_lookahead=250 / rc=crf / mbtree=1 / crf=14.0000 / qcomp=0.80 / qpmin=0 / qpmax=81 / qpstep=4 / ip_ratio=1.40 / aq=3:0.80Language : JapaneseDefault : YesForced : NoColor range : LimitedColor primaries : BT.709Transfer characteristics : BT.709Matrix coefficients : BT.709

AudioID : 2Format : AACFormat/Info : Advanced Audio CodecFormat profile : LCCodec ID : A_AACDuration : 22 minBit rate : 233 kb/sChannel(s) : 2 channelsChannel positions : Front: L RSampling rate : 48.0 kHzFrame rate : 46.875 FPS (1024 spf)Compression mode : LossyDelay relative to video : 20 msStream size : 38.3 MiB (8%)Title : 2.0 AACLanguage : JapaneseDefault : YesForced : No

Menu00:00:00.000 : en:Prologue00:01:20.998 : en:Opening00:02:51.045 : en:Episode00:21:35.002 : en:Ending00:22:45.029 : en:Preview
01 - Моя история
02 - Моя любовь
03 - Мой синий великан
04 - Мой парень
05 - Моя тупость
06 - Моё желание
07 - Моя сила
08 - Мой друг
09 - Мой друг и я
10 - Мои горы
11 - Мой океан
12 - Мои оценки
13 - Мой счет
14 - Мое проклятие
15 - Моя девушка
<a href="viewtopic.php?t=5066956" class="postLink">...5066956</a>
<a href="viewtopic.php?t=5067481" class="postLink">...5067481</a>
<a href="viewtopic.php?t=4982538" class="postLink">...4982538</a>
- BDRip 720p

<a href="viewtopic.php?t=5261105" class="postLink">...5261105</a>
- 720p


Трекер:  [ 21-Авг-2016 19:00 ]

  

Скачать .torrent

Размер .torrent файла 17 KB


Размер: 5.67 GB
Хэш (hash) релиза: 6e88128ff51ecf4390f4aedd9c2275f21229e615
Подписка на обновления:

Торренты, похожие на Моя история!! Ore Monogatari!! скачать торрент

Форум Название Автор Размер S L Добавлен
Аниме | HD Rips ·· Моя история!! / Ore Monogatari!! / My Love Story!! [TV] [24 из 24] [Без хардсаба] [JAP+SUB] [2015 г., комедия, романтика, сёдзё, BDRip] [720p] Galfimbul 94068622318.76 GB 0 0 1473444069

21:01

9-Сен-16

Аниме | HD Rips ·· Моя история!! / Ore Monogatari!! / My Love Story!! [TV] [24 из 24] [Без хардсаба] [JAP+SUB] [2015 г., комедия, романтика, сёдзё, BDRip] [1080p] Galfimbul 2732354307425.45 GB 0 0 1473444066

21:01

9-Сен-16

Аниме | HD Rips ·· Моя история!! / Ore Monogatari!! / My Love Story!! [TV] [1-15 из 24] [Без хардсаба] [JAP+SUB] [2015 г., комедия, романтика, сёдзё, BDRip] [1080p] Galfimbul 1740619376216.21 GB 0 0 1471800899

20:34

21-Авг-16

Аниме | HD Rips ·· Моя история!! / Ore Monogatari!! / My Love Story!! [TV] [1-9 из 24] [Без хардсаба] [JAP+SUB] [2015 г., комедия, романтика, сёдзё, BDRip] [720p] Galfimbul 37075913353.45 GB 0 0 1470162608

21:30

2-Авг-16

Аниме | HD Rips ·· Моя история!! / Ore Monogatari!! / My Love Story!! [TV] [1-9 из 24] [Без хардсаба] [JAP+SUB] [2015 г., комедия, романтика, сёдзё, BDRip] [1080p] Galfimbul 104677581599.75 GB 0 0 1470161071

21:04

2-Авг-16

Аниме | HD Rips ·· Моя история!! / Ore Monogatari!! / My Love Story!! [TV] [1-3 из 24] [Без хардсаба] [JAP+SUB] [2015 г., комедия, романтика, сёдзё, BDRip] [1080p] Galfimbul 38306997203.57 GB 0 0 1469804344

17:59

29-Июл-16

Аниме | Rips ·· Моя история! / Ore Monogatari! / My Love Story! [TV] [1 из 24][Без хардсаба] [RUS(int)] [2015 г., комедия, романтика, сёдзё, WEBRip] [720p] Galfimbul 332535400317 MB 0 0 1428664682

14:18

10-Апр-15

Еще никто не оставлял запись к записи скачать торрент Моя история!! Ore Monogatari!! . Будь первым!

!Обратная связь