Скачать через торрент Волшебная Сомера-тян Fushigi na Somera-chan бесплатно Аниме Все серии на русском torrent

Если у вас наблюдаются проблемы со скриншотами, переходом по ссылками, скачиванием торрентов - проблемы в блокировщике рекламы AdBlock. #хорошегоДня!


Статистика раздачи
Размер:  12 GB   |    Зарегистрирован:  1 год 1 месяц   |    .torrent скачан:  49 раз   |   
Раздают:  1  
   
Загрузка...
 
Автор Сообщение

Galfimbul

avatar Galfimbul


Волшебная Сомера-тян / Fushigi na Somera-chan

Год выпуска: 2015
Страна: Япония
Жанр: комедия
Тип: TV
Продолжительность: 12 эп. по 4 мин.
Озвучка: нет

Русские субтитры: есть (отдельным файлом, формат .ass)
Перевод:
<ol class="post-ul">
Krasialex
</ol>
Хардсаб: Нет
Режиссер: Имадзаки Ицуки
Студия: Seven

Описание: Сюжет повествует о повседневной жизни девочки-волшебницы Сомeры.

Качество: Blu-Ray Remux
Формат: MKV
Видео кодек: AVC
Аудио кодек: FLAC
Видео: 1920x1080 (16:9) 23,976 fps ~37,3 Mbps 8bit
Аудио:
Jap FLAC, 48000Hz, ~773 Kbps, 2ch
01. Here We Go! Say Hello to the Nonomoto Magic Fist
02. Here We Go! New Character Auditions
03. Here We Go! An Alien Invader!
04. Here We Go! Matsushima the Popular
05. Here We Go! Dr. Wommy`s Human Catastrophe Project
06. Here We Go! Kukuru and the Female Pakkun
07. Here We Go! Somera vs. Matsushima
08. Here We Go! Domunperg the Creator
09. Here We Go! Goodbye Matsushima
10. Here We Go! Christmas Invader
11. Here We Go! Human Massacre Project
12. Here We Go! Final Episode
Общее
Уникальный идентификатор : 228401898131347439907008066426397522221 (0xABD49B01D35233CF9D822F1486B3F92D)
Полное имя : M:\pub\Video\Anime\Fushigi na Somera-chan\[anti-raws]Fushigi na Somera-chan ep.01[BDRemux].mkv
Формат : Matroska
Версия формата : Version 4 / Version 2
Размер файла : 995 Мбайт
Продолжительность : 3 м. 34 с.
Режим общего битрейта : Переменный
Общий поток : 38,9 Мбит/сек
Дата кодирования : UTC 2016-08-14 20:50:50
Программа кодирования : mkvmerge v9.3.1 ('Mask Machine') 64bit
Библиотека кодирования : libebml v1.3.4 + libmatroska v1.4.5

Видео
Идентификатор : 2
Формат : AVC
Формат/Информация : Advanced Video Codec
Профиль формата : High@L4.1
Параметр CABAC формата : Да
Параметр ReFrames формата : 4 кадра
Идентификатор кодека : V_MPEG4/ISO/AVC
Продолжительность : 3 м. 34 с.
Вид битрейта : Переменный
Битрейт : 38,2 Мбит/сек
Максимальный битрейт : 40,0 Мбит/сек
Ширина : 1920 пикселей
Высота : 1080 пикселей
Соотношение сторон : 16:9
Режим частоты кадров : Постоянный
Частота кадров : 23,976 (24000/1001) кадра/сек
Цветовое пространство : YUV
Субдискретизация насыщенности : 4:2:0
Битовая глубина : 8 бит
Тип развёртки : Прогрессивная
Бит/(Пиксели*Кадры) : 0.768
Размер потока : 975 Мбайт (98%)
Default : Нет
Forced : Нет

Аудио
Идентификатор : 1
Формат : FLAC
Формат/Информация : Free Lossless Audio Codec
Идентификатор кодека : A_FLAC
Продолжительность : 3 м. 34 с.
Вид битрейта : Переменный
Битрейт : 772 Кбит/сек
Каналы : 2 канала
Расположение каналов : Front: L R
Частота : 48,0 КГц
Частота кадров : 11,719 кадров/сек (4096 spf)
Битовая глубина : 16 бит
Размер потока : 19,7 Мбайт (2%)
Библиотека кодирования : libFLAC 1.2.1 (UTC 2007-09-17)
Язык : Japanese
Default : Да
Forced : Нет
<a href="viewtopic.php?t=5099817" class="postLink">...5099817</a>
--WEBRip

Эта раздача - BDRemux


Трекер:  [ 15-Авг-2016 00:30 ]

  

Скачать .torrent

Размер .torrent файла 19 KB


Размер: 12 GB
Хэш (hash) релиза: fbf4bdcaaccbb7b002f090e96565fcd57338cfb2
Подписка на обновления:

Торренты, похожие на Волшебная Сомера-тян Fushigi na Somera-chan скачать торрент

Форум Название Автор Размер S L Добавлен
Аниме | HD Rips ·· Волшебная Сомера-тян / Magical Somera-chan / Fushigi na Somera-chan [TV] [8 из 12] [Без хардсаба] [JAP, SUB] [2015 г., комедия, WEBRip] [720p] Galfimbul 401574277383 MB 0 0 1449145852

15:30

3-Дек-15

Аниме | HD Rips ·· Волшебная Сомера-тян / Magical Somera-chan / Fushigi na Somera-chan [TV] [1 из 12] [Без хардсаба] [JAP, SUB] [2015 г., приключения, WEBRip] [720p] Galfimbul 5030086948 MB 0 0 1445202835

00:13

19-Окт-15

Еще никто не оставлял запись к записи скачать торрент Волшебная Сомера-тян Fushigi na Somera-chan . Будь первым!

!Обратная связь