Скачать через торрент Вечеринка мёртвых: Истязаемые души Corpse Party: Tortured Souls бесплатно Аниме Все серии на русском torrent

Если у вас наблюдаются проблемы со скриншотами, переходом по ссылками, скачиванием торрентов - проблемы в блокировщике рекламы AdBlock. #хорошегоДня!


Статистика раздачи
Размер:  31.32 GB   |    Зарегистрирован:  1 год 3 месяца   |    .torrent скачан:  30 раз   |   
Раздают:  1  
   
Загрузка...
 
Автор Сообщение

Galfimbul

avatar Galfimbul


Вечеринка мёртвых: Истязаемые души / Corpse Party: Tortured Souls

Год выпуска: 2013
Страна: Япония
Жанр: триллер, ужасы
Тип: OVA
Продолжительность: 4 эп. по 30 мин.
Озвучка:
<ol class="post-ul">
Одноголосая (муж/жен) от Persona99 (GetSmart)
Двухголосая (муж/жен) от DemonOFmooN & MezIdA (AniFilm)
</ol>

Русские субтитры: есть (отдельным файлом, формат .ass)
Перевод:
<ol class="post-ul">
Schum, Nerevar, Tassadar, St_Ranger [GMC]
</ol>
Хардсаб: Нет
Режиссер: Иванага Акира
Студия: asread

Описание: Начальная школа Тензин была закрыта много лет назад после череды загадочных исчезновений и жестоких убийств. На месте этой школы была построена Академия Кисараги, в которой учится Сатоши Мочида и его друзья. Оставшись в школе после фестиваля, компания решила провести один ритуал – разорвать бумажную куклу. По слухам, те, кто сделают так, "навсегда останутся вместе". Но, после того как они разорвали куклу, произошло то, чего никто не ожидал. Пол в классе проваливается из-за внезапного землетрясения, и каждый из друзей оказывается в одиночестве в тёмной и полуразрушенной школе. Но это уже не Академия Кисараги, а мрачная и зловещая школа Теншин, по которой до сих пор бродят души убитых…

Качество: Blu-Ray Remux
Формат: MKV
Видео кодек: AVC
Аудио кодек: FLAC
Видео: 1920x1080 (16:9) 23,976 fps ~35,9 Mbps 8bit
Аудио:
Jap FLAC, 48000Hz, ~1098 Kbps, 2ch
RUS 1-2 (ext) AC3, 48000Hz, ~192 Kbps, 2ch

Чаптеры присутствуют.
1. Всеобщая разлука
2. Сорванные петли
3. Недостижимые чувства
4. Горькая правда
Общее
Уникальный идентификатор : 179474941661437725768536053844253279182 (0x87059DCF18B2F6E88ACDEC1F5B5303CE)
Полное имя : M:\pub\Video\Anime\Corpse Party\OVA2\[anti-raws]Corpse Party - Tortured Souls ep.1[BDRemux].mkv
Формат : Matroska
Версия формата : Version 4 / Version 2
Размер файла : 7,75 Гбайт
Продолжительность : 29 м.
Режим общего битрейта : Переменный
Общий поток : 37,9 Мбит/сек
Дата кодирования : UTC 2016-08-14 19:05:16
Программа кодирования : mkvmerge v9.3.1 ('Mask Machine') 64bit
Библиотека кодирования : libebml v1.3.4 + libmatroska v1.4.5

Видео
Идентификатор : 2
Формат : AVC
Формат/Информация : Advanced Video Codec
Профиль формата : High@L4.1
Параметр CABAC формата : Да
Параметр ReFrames формата : 4 кадра
Идентификатор кодека : V_MPEG4/ISO/AVC
Продолжительность : 29 м.
Вид битрейта : Переменный
Битрейт : 36,8 Мбит/сек
Максимальный битрейт : 40,0 Мбит/сек
Ширина : 1920 пикселей
Высота : 1080 пикселей
Соотношение сторон : 16:9
Режим частоты кадров : Постоянный
Частота кадров : 23,976 (24000/1001) кадра/сек
Цветовое пространство : YUV
Субдискретизация насыщенности : 4:2:0
Битовая глубина : 8 бит
Тип развёртки : Прогрессивная
Бит/(Пиксели*Кадры) : 0.739
Размер потока : 7,52 Гбайт (97%)
Default : Нет
Forced : Нет

Аудио
Идентификатор : 1
Формат : FLAC
Формат/Информация : Free Lossless Audio Codec
Идентификатор кодека : A_FLAC
Продолжительность : 29 м.
Вид битрейта : Переменный
Битрейт : 1097 Кбит/сек
Каналы : 2 канала
Расположение каналов : Front: L R
Частота : 48,0 КГц
Частота кадров : 11,719 кадров/сек (4096 spf)
Битовая глубина : 24 бит
Detected bit depth : 20 бит
Размер потока : 230 Мбайт (3%)
Библиотека кодирования : libFLAC 1.2.1 (UTC 2007-09-17)
Язык : Japanese
Default : Да
Forced : Нет

Меню
00:00:00.000 : en:00:00:00.000
00:09:32.572 : en:00:09:32.572
00:11:43.077 : en:00:11:43.077
00:17:15.660 : en:00:17:15.660
00:27:08.627 : en:00:27:08.627
<a href="viewtopic.php?t=4509169" class="postLink">...4509169</a>
<a href="viewtopic.php?t=4635808" class="postLink">...4635808</a>
<a href="viewtopic.php?t=4539253" class="postLink">...4539253</a>
--BDRip

Эта раздача - BDRemux


Трекер:  [ 14-Авг-2016 22:30 ]

  

Скачать .torrent

Размер .torrent файла 42 KB


Размер: 31.32 GB
Хэш (hash) релиза: 4df9f4d1acccb45ef453a2e86571212c0bda9f56
Подписка на обновления:

Торренты, похожие на Вечеринка мёртвых: Истязаемые души Corpse Party: Tortured Souls скачать торрент

Форум Название Автор Размер S L Добавлен
Аниме | HD Rips ·· Вечеринка мёртвых: Истязаемые души / Corpse Party: Tortured Souls [Иванага Акира] [OVA] [Без хардсаба] [1-2 из 4] [RUS(int), JAP+SUB] [2013 г., Ужасы, BDRip] [720p] Galfimbul 18545001781.73 GB 0 0 1377009324

17:35

20-Авг-13

Аниме | HD Rips ·· Вечеринка мёртвых: Истязаемые души / Corpse Party: Tortured Souls [Иванага Акира] [OVA] [Без хардсаба] [1 из 4] [RUS(int), JAP] [2013 г., Ужасы, BDRip] [720p] Galfimbul 823246114785 MB 0 0 1376341234

00:00

13-Авг-13

Еще никто не оставлял запись к записи скачать торрент Вечеринка мёртвых: Истязаемые души Corpse Party: Tortured Souls . Будь первым!

!Обратная связь