Скачать через торрент музыку Отряд самоубийц Suicide Squad - 2016, FLAC бесплатно без регистрации torrent

Если у вас наблюдаются проблемы со скриншотами, переходом по ссылками, скачиванием торрентов - проблемы в блокировщике рекламы AdBlock. #хорошегоДня!


Статистика раздачи
Размер:  326 MB   |    Зарегистрирован:  1 год 1 месяц   |    .torrent скачан:  75 раз   |   
Раздают:  1  
   
Загрузка...
 
Автор Сообщение

Galfimbul

avatar Galfimbul


Отряд самоубийц / Suicide Squad: The Album

Жанр: Soundtrack
Год выпуска диска: 2016
Страна-производитель диска: USA
Издатель (лейбл): Atlantic
Аудиокодек: FLAC (*.flac)
Тип рипа: tracks+.cue
Битрейт аудио: lossless
Продолжительность: 00:51:02
Источник: скачано с
сайт-источник/ник/другое: what.cd
Наличие сканов в содержимом раздачи: нет

[i]01. Skrillex & Rick Ross - Purple Lamborghini (3:36)
02. Lil Wayne, Wiz Khalifa & Imagine Dragons - Sucker For Pain (with Logic, Ty Dolla $ign & X Ambassadors).flac (4:03)
03. twenty one pilots - Heathens (3:16)
04. Action Bronson, Mark Ronson & Dan Auerbach of The Black Keys - Standing In the Rain (3:22)
05. Kehlani - Gangsta (2:57)
06. Kevin Gates - Know Better (3:28)
07. Grace - You Don't Own Me (feat. G-Eazy) (3:20)
08. Eminem - Without Me (4:53)
09. Skylar Grey - Wreak Havoc (3:49)
10. Grimes - Medieval Warfare (3:01)
11. Panic! At the Disco - Bohemian Rhapsody (6:02)
12. War - Slippin' Into Darkness (3:48)
13. Creedence Clearwater Revival - Fortunate Son (2:18)
14. ConfidentialMX - I Started a Joke (feat. Becky Hanson) (3:11)
Exact Audio Copy V1.1 from 23. June 2015

EAC extraction logfile from 10. August 2016, 12:40

Various Artists / Suicide Squad: The Album

Used drive : MATSHITADVD-RAM UJ8HC Adapter: 1 ID: 0

Read mode : SecureUtilize accurate stream : YesDefeat audio cache : YesMake use of C2 pointers : No

Read offset correction : 6Overread into Lead-In and Lead-Out : NoFill up missing offset samples with silence : YesDelete leading and trailing silent blocks : NoNull samples used in CRC calculations : YesUsed interface : Native Win32 interface for Win NT & 2000Gap handling : Appended to previous track

Used output format : User Defined EncoderSelected bitrate : 1024 kBit/sQuality : HighAdd ID3 tag : NoCommand line compressor : C:\Program Files (x86)\Exact Audio Copy\FLAC\FLAC.EXEAdditional command line options : -8 -V -T "ARTIST=%artist%" -T "TITLE=%title%" -T "ALBUM=%albumtitle%" -T "DATE=%year%" -T "TRACKNUMBER=%tracknr%" -T "GENRE=%genre%" -T "PERFORMER=%albuminterpret%" -T "COMPOSER=%composer%" %haslyrics%--tag-from-file=LYRICS="%lyricsfile%"%haslyrics% -T "ALBUMARTIST=%albumartist%" -T "DISCNUMBER=%cdnumber%" -T "TOTALDISCS=%totalcds%" -T "TOTALTRACKS=%numtracks%" -T "COMMENT=%comment%" %source% -o %dest%

TOC of the extracted CD

Track | Start | Length | Start sector | End sector --------------------------------------------------------- 1 | 0:00.00 | 3:35.45 | 0 | 16169 2 | 3:35.45 | 4:04.13 | 16170 | 34482 3 | 7:39.58 | 3:15.69 | 34483 | 49176 4 | 10:55.52 | 3:22.03 | 49177 | 64329 5 | 14:17.55 | 2:57.24 | 64330 | 77628 6 | 17:15.04 | 3:28.09 | 77629 | 93237 7 | 20:43.13 | 3:19.45 | 93238 | 108207 8 | 24:02.58 | 4:52.63 | 108208 | 130170 9 | 28:55.46 | 3:48.62 | 130171 | 147332 10 | 32:44.33 | 3:01.04 | 147333 | 160911 11 | 35:45.37 | 6:01.60 | 160912 | 188046 12 | 41:47.22 | 3:47.40 | 188047 | 205111 13 | 45:34.62 | 2:18.05 | 205112 | 215466 14 | 47:52.67 | 3:10.41 | 215467 | 229757

Track 1

Filename G:\My Storage\What.cd Uploads\VA - Suicide Squad - The Album (2016) [FLAC]\01 - Skrillex & Rick Ross - Purple Lamborghini.wav

Pre-gap length 0:00:02.00

Peak level 54.0 % Extraction speed 2.5 X Track quality 100.0 % Test CRC EE74BAEF Copy CRC EE74BAEF Track not present in AccurateRip database Copy OK

Track 2

Filename G:\My Storage\What.cd Uploads\VA - Suicide Squad - The Album (2016) [FLAC]\02 - Lil Wayne, Wiz Khalifa & Imagine Dragons (with Logic, Ty Dolla $ign & X Ambassadors) - Sucker for Pain.wav

Peak level 70.1 % Extraction speed 2.9 X Track quality 100.0 % Test CRC 91968568 Copy CRC 91968568 Track not present in AccurateRip database Copy OK

Track 3

Filename G:\My Storage\What.cd Uploads\VA - Suicide Squad - The Album (2016) [FLAC]\03 - Twenty One Pilots - Heathens.wav

Peak level 68.3 % Extraction speed 3.0 X Track quality 100.0 % Test CRC C01CB33C Copy CRC C01CB33C Track not present in AccurateRip database Copy OK

Track 4

Filename G:\My Storage\What.cd Uploads\VA - Suicide Squad - The Album (2016) [FLAC]\04 - Action Bronson, Mark Ronson & Dan Auerbach (of The Black Keys) - Standing in the Rain.wav

Peak level 66.8 % Extraction speed 3.2 X Track quality 100.0 % Test CRC 453DFA1C Copy CRC 453DFA1C Track not present in AccurateRip database Copy OK

Track 5

Filename G:\My Storage\What.cd Uploads\VA - Suicide Squad - The Album (2016) [FLAC]\05 - Kehlani - Gangsta.wav

Peak level 69.0 % Extraction speed 3.3 X Track quality 100.0 % Test CRC F99318B1 Copy CRC F99318B1 Track not present in AccurateRip database Copy OK

Track 6

Filename G:\My Storage\What.cd Uploads\VA - Suicide Squad - The Album (2016) [FLAC]\06 - Kevin Gates - Know Better.wav

Peak level 69.0 % Extraction speed 2.9 X Track quality 99.9 % Test CRC EB06BEEE Copy CRC EB06BEEE Track not present in AccurateRip database Copy OK

Track 7

Filename G:\My Storage\What.cd Uploads\VA - Suicide Squad - The Album (2016) [FLAC]\07 - Grace (feat. G-Eazy) - You Don't Own Me.wav

Peak level 70.1 % Extraction speed 3.8 X Track quality 100.0 % Test CRC A6E7752F Copy CRC A6E7752F Track not present in AccurateRip database Copy OK

Track 8

Filename G:\My Storage\What.cd Uploads\VA - Suicide Squad - The Album (2016) [FLAC]\08 - Eminem - Without Me.wav

Peak level 74.7 % Extraction speed 4.1 X Track quality 100.0 % Test CRC 9F466027 Copy CRC 9F466027 Track not present in AccurateRip database Copy OK

Track 9

Filename G:\My Storage\What.cd Uploads\VA - Suicide Squad - The Album (2016) [FLAC]\09 - Skylar Grey - Wreak Havoc.wav

Peak level 55.6 % Extraction speed 4.3 X Track quality 100.0 % Test CRC 68E209BA Copy CRC 68E209BA Track not present in AccurateRip database Copy OK

Track 10

Filename G:\My Storage\What.cd Uploads\VA - Suicide Squad - The Album (2016) [FLAC]\10 - Grimes - Medieval Warfare.wav

Peak level 74.9 % Extraction speed 4.3 X Track quality 100.0 % Test CRC 9EBC5591 Copy CRC 9EBC5591 Track not present in AccurateRip database Copy OK

Track 11

Filename G:\My Storage\What.cd Uploads\VA - Suicide Squad - The Album (2016) [FLAC]\11 - Panic! At the Disco - Bohemian Rhapsody.wav

Peak level 66.8 % Extraction speed 4.8 X Track quality 100.0 % Test CRC 3D92CA3F Copy CRC 3D92CA3F Track not present in AccurateRip database Copy OK

Track 12

Filename G:\My Storage\What.cd Uploads\VA - Suicide Squad - The Album (2016) [FLAC]\12 - War - Slippin' Into Darkness.wav

Peak level 99.9 % Extraction speed 4.8 X Track quality 100.0 % Test CRC 81A36110 Copy CRC 81A36110 Track not present in AccurateRip database Copy OK

Track 13

Filename G:\My Storage\What.cd Uploads\VA - Suicide Squad - The Album (2016) [FLAC]\13 - Creedence Clearwater Revival - Fortunate Son.wav

Peak level 93.3 % Extraction speed 4.5 X Track quality 100.0 % Test CRC 9C3E1DA1 Copy CRC 9C3E1DA1 Track not present in AccurateRip database Copy OK

Track 14

Filename G:\My Storage\What.cd Uploads\VA - Suicide Squad - The Album (2016) [FLAC]\14 - ConfidentialMX (feat. Becky Hanson) - I Started a Joke.wav

Peak level 70.0 % Extraction speed 3.9 X Track quality 99.9 % Test CRC A89F08CF Copy CRC A89F08CF Track not present in AccurateRip database Copy OK

None of the tracks are present in the AccurateRip database

No errors occurred

End of status report

---- CUETools DB Plugin V2.1.6

[CTDB TOCID: Byyd.vvWrZ__DxLjf_TecD9TcW8-] foundSubmit result: Byyd.vvWrZ__DxLjf_TecD9TcW8- has been confirmedTrack | CTDB Status 1 | (14/14) Accurately ripped 2 | (14/14) Accurately ripped 3 | (14/14) Accurately ripped 4 | (14/14) Accurately ripped 5 | (14/14) Accurately ripped 6 | (14/14) Accurately ripped 7 | (14/14) Accurately ripped 8 | (14/14) Accurately ripped 9 | (14/14) Accurately ripped 10 | (14/14) Accurately ripped 11 | (14/14) Accurately ripped 12 | (14/14) Accurately ripped 13 | (14/14) Accurately ripped 14 | (14/14) Accurately ripped

==== Log checksum FB2B6F75AFA2EF444EC70DA1EFC0241462F9729266F3BD397D5099F677427A25 ====
REM GENRE SoundtrackREM DATE 2016REM DISCID D00BF70EREM COMMENT "ExactAudioCopy v1.1"CATALOG 0075678664533PERFORMER "Various Artists"TITLE "Suicide Squad: The Album"FILE "01 - Skrillex & Rick Ross - Purple Lamborghini.wav" WAVE TRACK 01 AUDIO TITLE "Purple Lamborghini" PERFORMER "Skrillex & Rick Ross" ISRC USAT21601929 INDEX 01 00:00:00FILE "02 - Lil Wayne, Wiz Khalifa & Imagine Dragons (with Logic, Ty Dolla $ign & X Ambassadors) - Sucker for Pain.wav" WAVE TRACK 02 AUDIO TITLE "Sucker for Pain" PERFORMER "Lil Wayne, Wiz Khalifa & Imagine Dragons (with Logic, Ty Dolla $ign & X Ambas..." ISRC USAT21601891 INDEX 01 00:00:00FILE "03 - Twenty One Pilots - Heathens.wav" WAVE TRACK 03 AUDIO TITLE "Heathens" PERFORMER "Twenty One Pilots" ISRC USAT21601930 INDEX 01 00:00:00FILE "04 - Action Bronson, Mark Ronson & Dan Auerbach (of The Black Keys) - Standing in the Rain.wav" WAVE TRACK 04 AUDIO TITLE "Standing in the Rain" PERFORMER "Action Bronson, Mark Ronson & Dan Auerbach (of The Black Keys)" ISRC USAT21601931 INDEX 01 00:00:00FILE "05 - Kehlani - Gangsta.wav" WAVE TRACK 05 AUDIO TITLE "Gangsta" PERFORMER "Kehlani" ISRC USAT21601932 INDEX 01 00:00:00FILE "06 - Kevin Gates - Know Better.wav" WAVE TRACK 06 AUDIO TITLE "Know Better" PERFORMER "Kevin Gates" ISRC USAT21601933 INDEX 01 00:00:00FILE "07 - Grace (feat. G-Eazy) - You Don't Own Me.wav" WAVE TRACK 07 AUDIO TITLE "You Don't Own Me" PERFORMER "Grace (feat. G-Eazy)" ISRC USRC11500344 INDEX 01 00:00:00FILE "08 - Eminem - Without Me.wav" WAVE TRACK 08 AUDIO TITLE "Without Me" PERFORMER "Eminem" ISRC USIR10211038 INDEX 01 00:00:00FILE "09 - Skylar Grey - Wreak Havoc.wav" WAVE TRACK 09 AUDIO TITLE "Wreak Havoc" PERFORMER "Skylar Grey" ISRC USAT21601944 INDEX 01 00:00:00FILE "10 - Grimes - Medieval Warfare.wav" WAVE TRACK 10 AUDIO TITLE "Medieval Warfare" PERFORMER "Grimes" ISRC USAT21601935 INDEX 01 00:00:00FILE "11 - Panic! At the Disco - Bohemian Rhapsody.wav" WAVE TRACK 11 AUDIO TITLE "Bohemian Rhapsody" PERFORMER "Panic! At the Disco" ISRC USAT21601936 INDEX 01 00:00:00FILE "12 - War - Slippin' Into Darkness.wav" WAVE TRACK 12 AUDIO TITLE "Slippin' Into Darkness" PERFORMER "War" ISRC USRHD0703048 INDEX 01 00:00:00FILE "13 - Creedence Clearwater Revival - Fortunate Son.wav" WAVE TRACK 13 AUDIO TITLE "Fortunate Son" PERFORMER "Creedence Clearwater Revival" ISRC USC4R0817618 INDEX 01 00:00:00FILE "14 - ConfidentialMX (feat. Becky Hanson) - I Started a Joke.wav" WAVE TRACK 14 AUDIO TITLE "I Started a Joke" PERFORMER "ConfidentialMX (feat. Becky Hanson)" ISRC USAT21601937 INDEX 01 00:00:00


Трекер:  [ 10-Авг-2016 22:30 ]

  

Скачать .torrent

Размер .torrent файла 14 KB


Размер: 326 MB
Хэш (hash) релиза: d085f4326b8363b5eecd24c969e32a4e9e5e0c42

Торренты, похожие на Отряд самоубийц Suicide Squad - 2016, FLAC скачать торрент

Форум Название Автор Размер S L Добавлен
Саундтреки к фильмам и мультфильмам (lossless) ·· (Soundtrack) [WEB] Отряд самоубийц / Suicide Squad (Suicide Squad: The Album) - 2016, FLAC (tracks), lossless Galfimbul 347614346332 MB 0 0 1470483653

14:40

6-Авг-16

Саундтреки к фильмам и мультфильмам (lossless) ·· (Score) Отряд самоубийц / Suicide Squad (Steven Price) {WEB} - 2016, FLAC (tracks), lossless Galfimbul 533051138508 MB 0 0 1470695653

01:34

9-Авг-16

Еще никто не оставлял запись к записи скачать торрент Отряд самоубийц Suicide Squad - 2016, FLAC . Будь первым!

!Обратная связь