Скачать через торрент Бездомный Бог: Арагото Noragami Aragoto бесплатно Аниме Все серии на русском torrent

Если у вас наблюдаются проблемы со скриншотами, переходом по ссылками, скачиванием торрентов - проблемы в блокировщике рекламы AdBlock. #хорошегоДня!


Статистика раздачи
Размер:  1.57 GB   |    Зарегистрирован:  1 год 1 месяц   |    .torrent скачан:  10 раз   |   
Раздают:  1  
   
Загрузка...
 
Автор Сообщение

Galfimbul

avatar Galfimbul


Бездомный Бог: Арагото / Noragami Aragoto
Страна: Япония
Год выпуска: 2015
Жанр: приключения, комедия, мистика, сёнен
Тип: TV
Продолжительность: 13 эп. по ~24 мин
Режиссёр: Тамура Котаро
Снято по манге: Noragami
Автор оригинала: Адати Тока
Студия: BONES
Озвучка:
Двухголосная (муж./жен.) Zendos & Eladiel (Onibaku Group)
Субтитры:
русские (внешние) ASS надписи/полные
от LeDi-MaHo Team
перевод, лирика: MantisFL
редакция, оформление: Holydarkness
от Firegorn Team
перевод: Misto_river
редактирование: Лилия де-Франц
оформление, караоке: Redgar-firegorn
английские (встроенные) ASS
от FFF
Описание: Юная японка Хиёри Ики живет в двух мирах: обычном и «тонком», где правят духи и боги синтоизма. Пускай Хиёри одаренная, но она человек, и каждый день такой жизни истончает связь души и тела, то есть приближает раннюю смерть. Единственная надежда – бродячий бог Ято, частично виновный в случившемся и обещавший исцелить девушку, но сейчас у синеглазого красавца мало сил, на нем самом висит проклятье, а по следам идет могучая и злопамятная богиня войны Бисямонтэн, объявившая Ято вендетту. Вот и пришлось хрупкой школьнице брать дело в свои руки!

Первые итоги сотрудничества оказались неплохи: Ято с помощью Хиёри обзавелся «синки», священным оружием, заключив контракт с душой парня и дав ему имя Юкинэ. Новая команда сработалась, нашла союзников и с честью прошла через суровые битвы. Даже с неистовой Бисямон наметился диалог, но… время Хиёри уходит, а истинные враги только начали приоткрывать свои замыслы. Старшие боги недовольны поднявшейся суматохой и прямо советуют Ято «решить вопрос» с незваной гостьей из человеческого мира. Успеют ли герои на самом деле что-то решить… и получит ли, наконец, бродячий бог свой собственный храм?
© Hollow, World Art
Качество: BDRip
Релиз/Автор рипа: FFF
Совместимость с бытовыми плеерами: Нет
Наличие линковки: Нет
Тип видео: без хардсаба
Формат: MKV
Видео: x264, 1280x720, (16/9), ~2200бит/с, 23.976fps, 10 bit
Аудио #1 (внешняя) русская - AAC, 2 ch, 224кбит/с, 48000Hz
Аудио #2 (в контейнере) японская - AAC, 2 ch, ~250кбит/с, 96000Hz
* Чтобы смотреть с озвучкой, необходимо из папки [Zendos & Eladiel] переписать файлы в папку, где находятся видеофайлы. Далее, следует запустить плеер и переключиться на mka-дорожку. Подробное описание <a href="viewtopic.php?t=2403326" class="postLink">здесь</a>
* Чтобы смотреть 10-битное видео (10bit), необходимо, исходя из ваших предпочтений используемого проигрывателя, воспользоваться
<a href="viewtopic.php?t=3682344" class="postLink">этой инструкцией.</a>
* Чтобы смотреть с субтитрами, необходимо из папки к примеру [LeDi-MaHo Team] переписать файлы в папку, где находятся видеофайлы. В большинстве плееров, одноимённые субтитры подключатся автоматически.

01 - Bearing a Posthumos Name
02 - One of Her Memories
03 - False Bond
04 - Wish
05 - Divine Acclamation, Imprecation
06 - What Must Be Done
07 - How to Worship a God
08 - God of Calamity
09 - The Sound of a Thread Snapping
10 - A Certain Desire
11 - Revival
12 - Your Voice Calls Out
13 - The God of Fortune's Message

<a href="viewtopic.php?t=5179902" class="postLink">...5179902</a> - наличие озвучки
<a href="viewtopic.php?t=5179894" class="postLink">...5179894</a> -720p
<a href="viewtopic.php?t=5089884" class="postLink">...5089884</a>
<a href="viewtopic.php?t=5090976" class="postLink">...5090976</a>
- BDRip


Общее
Уникальный идентификатор : 177392720132088569298737801184077954836 (0x8574985C873CD3BFBDE7317C37DC3F14)
Полное имя : C:\Торренты №2\Noragami Aragoto [BDRip 720p]\[FFF] Noragami Aragoto - 03 [BD][720p-AAC].mkv
Формат : Matroska
Версия формата : Version 4 / Version 2
Размер файла : 420 Мбайт
Продолжительность : 24 м.
Общий поток : 2431 Кбит/сек
Дата кодирования : UTC 2016-03-11 04:42:08
Программа кодирования : mkvmerge v8.8.0 ('Wind at my back') 64bit
Библиотека кодирования : libebml v1.3.3 + libmatroska v1.4.4
Attachments : SOURCESANSPRO-BOLDIT.OTF / FOT-TSUKUMINPR5-EN-H.TTF / NORAGAMI-BOLD.TTF / SKARPA REGULAR.TTF / SOURCESANSPRO-BOLD.OTF

Видео
Идентификатор : 1
Формат : AVC
Формат/Информация : Advanced Video Codec
Профиль формата : High 10@L5
Параметр CABAC формата : Да
Параметр ReFrames формата : 16 кадров
Идентификатор кодека : V_MPEG4/ISO/AVC
Продолжительность : 24 м.
Битрейт : 2164 Кбит/сек
Ширина : 1280 пикселей
Высота : 720 пикселей
Соотношение сторон : 16:9
Режим частоты кадров : Постоянный
Частота кадров : 23,976 (24000/1001) кадра/сек
Цветовое пространство : YUV
Субдискретизация насыщенности : 4:2:0
Битовая глубина : 10 бит
Тип развёртки : Прогрессивная
Бит/(Пиксели*Кадры) : 0.098
Размер потока : 374 Мбайт (89%)
Заголовок : 10bit H.264 - 720p
Библиотека кодирования : x264 core 148 r2665kMod a01e339
Настройки программы : cabac=1 / ref=16 / deblock=1:1:1 / analyse=0x3:0x133 / me=umh / subme=11 / psy=1 / fade_compensate=0.00 / psy_rd=0.65:0.00 / mixed_ref=1 / me_range=24 / chroma_me=1 / trellis=2 / 8x8dct=1 / cqm=0 / deadzone=21,11 / fast_pskip=0 / chroma_qp_offset=-2 / threads=22 / lookahead_threads=5 / sliced_threads=0 / nr=0 / decimate=1 / interlaced=0 / bluray_compat=0 / constrained_intra=0 / fgo=0 / bframes=16 / b_pyramid=2 / b_adapt=2 / b_bias=0 / direct=3 / weightb=1 / open_gop=0 / weightp=2 / keyint=250 / keyint_min=23 / scenecut=40 / intra_refresh=0 / rc_lookahead=250 / rc=crf / mbtree=1 / crf=14.0000 / qcomp=0.85 / qpmin=0 / qpmax=81 / qpstep=4 / ip_ratio=1.40 / aq=3:0.80
Язык : Japanese
Default : Да
Forced : Нет
Цветовой диапазон : Limited
Основные цвета : BT.709
Характеристики трансфера : BT.709
Коэффициенты матрицы : BT.709

Аудио
Идентификатор : 2
Формат : AAC
Формат/Информация : Advanced Audio Codec
Профиль формата : LC
Идентификатор кодека : A_AAC
Продолжительность : 24 м.
Битрейт : 255 Кбит/сек
Каналы : 2 канала
Расположение каналов : Front: L R
Частота : 48,0 КГц
Частота кадров : 46,875 кадров/сек (1024 spf)
Метод сжатия : С потерями
Задержка видео : 20 мс.
Размер потока : 44,0 Мбайт (10%)
Заголовок : 2.0 AAC
Язык : Japanese
Default : Да
Forced : Нет

Текст
Идентификатор : 3
Формат : ASS
Идентификатор кодека : S_TEXT/ASS
Идентификатор кодека/Информация : Advanced Sub Station Alpha
Продолжительность : 24 м.
Битрейт : 3312 бит/сек
Count of elements : 3847
Метод сжатия : Без потерь
Размер потока : 585 Кбайт (0%)
Заголовок : FFF
Язык : English
Default : Да
Forced : Нет

Меню
00:00:00.033 : en:Prologue
00:00:41.020 : en:Opening
00:02:10.990 : en:Part A
00:13:04.590 : en:Eyecatch
00:13:07.970 : en:Part B
00:22:24.940 : en:Ending
00:23:54.950 : en:Part C



Трекер:  [ 09-Авг-2016 10:30 ]

  

Скачать .torrent

Размер .torrent файла 18 KB


Размер: 1.57 GB
Хэш (hash) релиза: 5e1b18e5e387c14e70cf872807d48c03a058d63f
Подписка на обновления:

Торренты, похожие на Бездомный Бог: Арагото Noragami Aragoto скачать торрент

Форум Название Автор Размер S L Добавлен
Аниме | HD Rips ·· Бездомный Бог: Арагото / Noragami Aragoto (Тамура Котаро) [TV] [13 из 13] [без хардсаба] [RUS(ext),JAP+SUB] [2015 г., приключения, комедия, мистика, сёнен, BDRip] [720p] Galfimbul 68074432856.34 GB 0 0 1471013911

17:58

12-Авг-16

Аниме | Rips ·· Бездомный Бог: Арагото / Noragami: Aragoto [TV] [13 из 13] [Без хардсаба] [JAP+SUB] [2015 г., Приключения, комедия, мистика, сенен, BDRip] Galfimbul 38656624623.6 GB 0 0 1468771604

19:06

17-Июл-16

Аниме | Rips ·· Бездомный Бог: Арагото / Noragami: Aragoto [TV] [1-7 из 13] [Без хардсаба] [JAP+SUB] [2015 г., Приключения, комедия, мистика, сенен, BDRip] Galfimbul 20787351401.94 GB 0 0 1463403474

15:57

16-Май-16

Аниме | Rips ·· Бездомный Бог: Арагото / Noragami: Aragoto [TV] [3 из 13] [Без хардсаба] [JAP+SUB] [2015 г., Приключения, комедия, мистика, сенен, BDRip] Galfimbul 869119937829 MB 0 0 1456869582

00:59

2-Мар-16

Аниме | Rips ·· Бездомный бог: Арагото / Noragami Aragoto [TV] [2 из >12] [без хардсаба] [RUS (int), JAP + SUB] [2015 г., приключения, романтика, мистика, HDTVRip] [HWP] Galfimbul 633059138604 MB 0 0 1444858636

00:37

15-Окт-15

Аниме | HD Rips ·· Бездомный бог: Арагото / Noragami Aragoto [TV] [1 из >12] [без хардсаба] [JAP+SUB] [2015 г., комедия, романтика, этти, HDTVRip] [720p] Galfimbul 413861869395 MB 0 0 1443850415

08:33

3-Окт-15

Аниме | HD Rips ·· Бездомный Бог: Арагото / Норагами Арагото / Noragami Aragoto [TV] [01-02 из 12] [без хардсаба] [RUS(int), JAP+SUB] [2015, приключения, HDTVRip] [720p] Galfimbul 804676821767 MB 0 0 1444858985

00:43

15-Окт-15

Аниме | HD Rips ·· Бездомный бог: Арагото / Норагами: Арагото / Noragami: Aragoto (Тамура Котаро) [TV] [01 из 12] [без хардсаба] [JAP+SUB] [2015 г., приключения, романтика, мистика, HDTVRip] [720p] Galfimbul 318684477304 MB 0 0 1443966578

16:49

4-Окт-15

Аниме | Rips ·· Бездомный Бог: Арагото (ТВ-2) / Noragami Aragoto [TV] [01-10 из 13] [Без хардсаба] [RUS(ext), JAP, SUB] [2015 г., Приключения, Сверхъестественное, Сёнен, HDTVRip] [720p] Galfimbul 44017023994.1 GB 0 0 1449410706

17:05

6-Дек-15

Еще никто не оставлял запись к записи скачать торрент Бездомный Бог: Арагото Noragami Aragoto . Будь первым!

!Обратная связь