Скачать через торрент Кролика заказывали?? бесплатно Аниме Все серии на русском torrent

Если у вас наблюдаются проблемы со скриншотами, переходом по ссылками, скачиванием торрентов - проблемы в блокировщике рекламы AdBlock. #хорошегоДня!


Статистика раздачи
Размер:  4.93 GB   |    Зарегистрирован:  1 год 1 месяц   |    .torrent скачан:  16 раз   |   
Раздают:  1  
   
Загрузка...
 
Автор Сообщение

Galfimbul

avatar Galfimbul



Кролика заказывали?? / Gochuumon wa Usagi Desuka?? / ご注文はうさぎですか??
Страна: Япония
Год выпуска: 2015 г.
Жанр: комедия, повседневность
Тип: TV
Продолжительность: 12 эп. по ~ 24 мин
Режиссер: Хасимото Хироюки
Студия: White Fox
Перевод:
<ol class="post-ul">
русские субтитры: [Усатый Ня] (внешним файлом).
</ol>



Описание: В некотором царстве, странном государстве, где в культурно-историческом экстазе неведомым образом слились Европа и Япония, на неторопливой речке по-прежнему стоит милый городок с фахверковыми домами и бульварами, поросшими сакурой. Недалеко от реки притаилось кафе «Кроличья нора» - и там усталых путников ждут не только говорящий кролик и чудесный кофе, но и настоящий букет юных барист и официанток на любой вкус!

Недавняя гостья Кокоа Хото вполне освоилась на новом месте, стала своим человеком в «Норе» и влилась в дружную компанию девчат из соседних кафе, чайных и кондитерских лавок. Работа с людьми – великий учитель, а попутно можно поучиться латте-арту, от души потискать милашку Тино, послушать новости от Тии, пошутить над Сяро и обежать полгорода в поисках новых впечатлений. Искусство кофе и бытия во многом схожи: главное – быть искренним и не портить божественный вкус лишним сахаром!

© Hollow, World Art



Качество: BDRip
Тип релиза: Без хардсаба
Формат видео: MKV
Наличие линковки: Нет
Релиз/Автор рипа: [FFF]
Видео: x264, 1280x720, 2089 Kbps, 23.976 fps, 10 bit
Аудио: JAP, AAC, 245 kbps, 48000 Hz, 2ch
GeneralUnique ID : 248428008130722402717698736444266258815 (0xBAE57E7605237F2DBC11CFA35C70217F)Complete name : D:\[FFF] Gochuumon wa Usagi Desu ka S2 [BDRip][720p]\[FFF] Gochuumon wa Usagi Desu ka S2 - 01 [BD][720p-AAC].mkvFormat : MatroskaFormat version : Version 4 / Version 2File size : 397 MiBDuration : 23 minOverall bit rate : 2 353 kb/sMovie name : Is the Order a Rabbit?? - 01 - Incessant Smiles and Flashes. That's My Self-Proclaimed Older SisterEncoded date : UTC 2016-08-05 13:26:03Writing application : mkvmerge v9.3.1 ('Mask Machine') 64bitWriting library : libebml v1.3.4 + libmatroska v1.4.5Attachments : CHILLER.TTF / DINPRO-REGULAR.OTF / GrilledCheese BTN Toasted.ttf / HALCOM-BOOKITALIC.TTF / HOEFLER TEXT.TTF / ITCKRIST.TTF / KFHIMAJI.TTF / KGTurningTables.ttf / KUNSTLER.TTF / LANDMARK-REGULAR.OTF / MATURASC.TTF / MERCURY-TEXTG1SEMIBOLD.OTF / MERCURY-TEXTG1SEMIBOLDITALIC.OTF / MERCURY-TEXTG1SEMIBOLDSC.OTF / MERCURY-TEXTG3ROMANSC.OTF / MIKADO-BOLD.TTF / MIKADO-LIGHT.TTF / MIKADO-MEDIUM.TTF / MIKADO-REGULAR.TTF / Niconne-Regular.ttf / PAINTED.TTF / PANTONICONSC-FILLREGULAR.TTF / PERO-EXTRABOLD.TTF / PERO-REGULAR.TTF / PERO-SEMIBOLD.TTF / PRATERSERIFONE-BOLD.OTF / Rosario-Bold.otf / Rosario-BoldItalic.otf / AMANDARAE.TTF / ARLRDBD.TTF / BELLWETHERS-SPECIALEXTRAS.TTF / BREAKERSSLAB-ULTRA.TTF / BRUSHTIPTRAVISTCND.TTF

VideoID : 1Format : AVCFormat/Info : Advanced Video CodecFormat profile : High 10@L5Format settings, CABAC : YesFormat settings, ReFrames : 16 framesCodec ID : V_MPEG4/ISO/AVCDuration : 23 minBit rate : 2 089 kb/sWidth : 1 280 pixelsHeight : 720 pixelsDisplay aspect ratio : 16:9Frame rate mode : ConstantFrame rate : 23.976 (24000/1001) FPSColor space : YUVChroma subsampling : 4:2:0Bit depth : 10 bitsScan type : ProgressiveBits/(Pixel*Frame) : 0.095Stream size : 353 MiB (89%)Title : 10bit H.264 - 720pWriting library : x264 core 148 r2638kMod 7599210Encoding settings : cabac=1 / ref=16 / deblock=1:1:1 / analyse=0x3:0x133 / me=umh / subme=11 / psy=1 / fade_compensate=0.00 / psy_rd=0.60:0.00 / mixed_ref=1 / me_range=24 / chroma_me=1 / trellis=2 / 8x8dct=1 / cqm=0 / deadzone=21,11 / fast_pskip=0 / chroma_qp_offset=-2 / threads=22 / lookahead_threads=5 / sliced_threads=0 / nr=0 / decimate=1 / interlaced=0 / bluray_compat=0 / constrained_intra=0 / fgo=0 / bframes=16 / b_pyramid=2 / b_adapt=2 / b_bias=0 / direct=3 / weightb=1 / open_gop=0 / weightp=2 / keyint=250 / keyint_min=23 / scenecut=40 / intra_refresh=0 / rc_lookahead=250 / rc=crf / mbtree=1 / crf=14.0000 / qcomp=0.80 / qpmin=0 / qpmax=81 / qpstep=4 / ip_ratio=1.40 / aq=3:0.80Language : JapaneseDefault : YesForced : NoColor range : LimitedColor primaries : BT.709Transfer characteristics : BT.709Matrix coefficients : BT.709

AudioID : 2Format : AACFormat/Info : Advanced Audio CodecFormat profile : LCCodec ID : A_AACDuration : 23 minBit rate : 245 kb/sChannel(s) : 2 channelsChannel positions : Front: L RSampling rate : 48.0 kHzFrame rate : 46.875 FPS (1024 spf)Compression mode : LossyDelay relative to video : 20 msStream size : 41.4 MiB (10%)Title : 2.0 AACLanguage : JapaneseDefault : YesForced : No

Menu00:00:00.000 : en:Prologue00:01:36.990 : en:Opening00:03:06.950 : en:Episode00:20:21.990 : en:Ending00:21:51.950 : en:Epilogue00:23:26.960 : en:Preview00:23:36.970 : en:Endcard
01 - I Knew at First Glance That It Was No Ordinary Fluffball
02 - The Girl Who Loved Wheat and the Girl Loved by Azuki Beans
03 - Do You Remember the Day You First Got Drunk? You Tried to Light a Campfire in Your Own Home, Didn`t You?
04 - Your Lucky Items Are Vegetables, Crime, and Punishment
05 - Cocoa and Murderous Intent Without Malice
06 - A Story About Telling a Story
07 - Call Me Sister
08 - Wet with Pool Water, Wet with Rain, Wet with Tears
09 - Aoyama Slump Mountain
10 - The Anti-Sister Battle Corps, Also Known as the Chimame Corps
11 - The Girl Dons a Red Coat and Drives a Team of Rabbits Across the Christmas Eve Night Sky
12 - For You, I Can Sleep Late
<a href="viewtopic.php?t=5256192" class="postLink">...5256192</a>
- BDRip 720p


Трекер:  [ 05-Авг-2016 17:30 ]

  

Скачать .torrent

Размер .torrent файла 15 KB


Размер: 4.93 GB
Хэш (hash) релиза: ea882ed896effe813d93b2f5a9be6b29ef635a11
Подписка на обновления:

Торренты, похожие на Кролика заказывали?? скачать торрент

Форум Название Автор Размер S L Добавлен
Аниме | Rips ·· Кролика заказывали?? (ТВ-2) / Gochuumon wa Usagi Desu ka?? / Gochuumon wa Usagi Desuka?? [TV] [12 из 12] [Без хардсаба] [RUS(ext), JAP+SUB] [2015, Комедия, Повседневность, BDRip] [1080p] Galfimbul 1252295311411.66 GB 0 0 1496965204

02:40

9-Июн-17

Аниме | Rips ·· Кролика заказывали?? (ТВ-2) / Gochuumon wa Usagi Desu ka?? / Gochuumon wa Usagi Desuka?? [TV] [12 из 12] [Без хардсаба] [RUS(ext), JAP+SUB] [2015, Комедия, Повседневность, BDRip] [1080p] Galfimbul 1252295388211.66 GB 0 0 1493561668

17:14

30-Апр-17

Аниме | HD Rips ·· Кролика заказывали?? (ТВ-2) / Gochuumon wa Usagi Desuka?? / Is the Order a Rabbit?? [TV] [12 из 12] [Без хардсаба] [JAP+SUB] [2015 г., комедия, повседневность, BDRip] [1080p] Galfimbul 1181471554211 GB 0 0 1470410853

18:27

5-Авг-16

Аниме | HD Rips ·· Кролика заказывали? / Gochuumon wa Usagi Desuka? / Is the Order a Rabbit? [TV] [12 из 12] [Без хардсаба] [JAP, SUB] [2014 г., повседневность, BDRemux] [1080p] Galfimbul 9534816847688.8 GB 0 0 1468771767

19:09

17-Июл-16

Аниме | Rips ·· Кролика заказывали?? (ТВ-2) / Gochuumon wa Usagi Desuka?? [TV] [01 из 12] [Без хардсаба] [RUS(ext), JAP, SUB] [2015 г., Комедия, Повседневность, HDTVRip] [720p] Galfimbul 251808177240 MB 0 0 1444860024

01:00

15-Окт-15

Аниме | Rips ·· Кролика заказывали? / Gochuumon wa Usagi Desuka? / Is the Order a Rabbit? (Хасимото Хироюки) [TV] [6 из 12] [без хардсаба] [RUS(ext), JAP+SUB] [2014 г., комедия, повседневность, BDRip] [1080p] Galfimbul 1328797387112.38 GB 0 0 1413317192

23:06

14-Окт-14

Аниме | HD Rips ·· Кролика заказывали? / Gochuumon wa Usagi Desuka? / Is the Order a Rabbit? (Хасимото Хироюки) [TV] [6 из 12] [без хардсаба] [JAP+SUB] [2014 г., комедия, повседневность, BDRip] [1080p] Galfimbul 1280853165311.93 GB 0 0 1413315338

22:35

14-Окт-14

Аниме | Rips ·· Кролика заказывали? / Gochuumon wa Usagi Desuka? / Is the Order a Rabbit? (Хасимото Хироюки) [TV] [6 из 12] [без хардсаба] [RUS(ext), JAP+SUB] [2014 г., комедия, повседневность, BDRip] [720p] Galfimbul 35072827533.27 GB 0 0 1410613305

16:01

13-Сен-14

Аниме | HD Rips ·· Кролика заказывали? / Gochuumon wa Usagi Desuka? / Is the Order a Rabbit? (Хасимото Хироюки) [TV] [6 из 12] [без хардсаба] [JAP+SUB] [2014 г., комедия, повседневность, BDRip] [720p] Galfimbul 32275165803.01 GB 0 0 1410611460

15:31

13-Сен-14

Аниме | HD Rips ·· Кролика заказывали? / Gochuumon wa Usagi Desuka (Хасимото Хироюки) [TV] [12 из 12] [Без хардсаба] [JAP+SUB] [2014 г., комедия, WEBRip] [720p] Galfimbul 40655461583.79 GB 0 0 1399582274

23:51

8-Май-14

Аниме | Rips ·· Заказывали кролика? [ТВ-2] / Gochuumon wa Usagi Desu ka?? / Gochuumon wa Usagi Desuka?? [TV] [1-12 из 12] [Без хардсаба] [RUS(int), JAP] [2015 г., Школа, Комедия, Повседневность., WEBRip] [720p] Galfimbul 44432970134.14 GB 0 0 1466006368

18:59

15-Июн-16

Аниме | Rips ·· Заказывали кролика? [ТВ-2] / Gochuumon wa Usagi Desu ka?? / Gochuumon wa Usagi Desuka?? [TV] [1-6 из 12] [Без хардсаба] [RUS(int), JAP] [2015 г., Школа, Комедия, Повседневность., WEBRip] [720p] Galfimbul 22200962292.07 GB 0 0 1449673214

18:00

9-Дек-15

Еще никто не оставлял запись к записи скачать торрент Кролика заказывали?? . Будь первым!

!Обратная связь