Скачать через торрент Она и её кот - Всё течёт, всё меняется - Kanojo to Kanojo no Neko: Everything Flows бесплатно Аниме Все серии на русском torrent

Если у вас наблюдаются проблемы со скриншотами, переходом по ссылками, скачиванием торрентов - проблемы в блокировщике рекламы AdBlock. #хорошегоДня!


Статистика раздачи
Размер:  8.1 GB   |    Зарегистрирован:  1 год 1 месяц   |    .torrent скачан:  23 раза   |   
Раздают:  1  
   
Загрузка...
 
Автор Сообщение

Galfimbul

avatar Galfimbul


Год выпуска: 2016 | Страна: Япония
Жанр: повседневность
Продолжительность: тв-сериал, 4 эп. по 8 мин.
Перевод: субтитры от Shift & Timecraft
переводчик: Evafan, oформление: Surokune, редактор: AleX_MytH
Режиссер: Сакамото Кадзуя
Студия:
AniDB World Art MAL
Качество: BDRemux
Тип релиза: без хардсаба, без линковки
Формат видео: MKV
Видео: x264, 8 bit, 1920x1080, 23.976fps, 39 Mbps
Аудио JAP: FLAC, 48.0 kHz, 2.0 ch, 24 bit, 1274 Kbps
Описание: Приквел к одноимённой OVA Макото Синкая.
GeneralUnique ID : 248428899906957030660829847235015456574 (0xBAE5AA6DD18F843DAD9D4FBC2E7FB73E)Complete name : D:\tempd\Kanojo to Kanojo no Neko - Everything Flows [BDRemux]\Kanojo to Kanojo no Neko - Everything Flows.mkvFormat : MatroskaFormat version : Version 4 / Version 2File size : 7.32 GiBDuration : 27 minOverall bit rate mode : VariableOverall bit rate : 38.1 Mb/sEncoded date : UTC 2016-07-28 13:48:23Writing application : mkvmerge v9.3.1 ('Mask Machine') 64bitWriting library : libebml v1.3.4 + libmatroska v1.4.5

VideoID : 1Format : AVCFormat/Info : Advanced Video CodecFormat profile : High@L4.1Format settings, CABAC : YesFormat settings, ReFrames : 4 framesCodec ID : V_MPEG4/ISO/AVCDuration : 27 minBit rate mode : VariableBit rate : 36.8 Mb/sMaximum bit rate : 39.0 Mb/sWidth : 1 920 pixelsHeight : 1 080 pixelsDisplay aspect ratio : 16:9Frame rate mode : ConstantFrame rate : 23.976 (24000/1001) FPSColor space : YUVChroma subsampling : 4:2:0Bit depth : 8 bitsScan type : ProgressiveBits/(Pixel*Frame) : 0.740Stream size : 7.07 GiB (97%)Default : YesForced : No

AudioID : 2Format : FLACFormat/Info : Free Lossless Audio CodecCodec ID : A_FLACDuration : 27 minBit rate mode : VariableBit rate : 1 270 kb/sChannel(s) : 2 channelsChannel positions : Front: L RSampling rate : 48.0 kHzFrame rate : 11.719 FPS (4096 spf)Bit depth : 24 bitsStream size : 250 MiB (3%)Writing library : libFLAC 1.3.1 (UTC 2014-11-25)Language : JapaneseDefault : YesForced : No

Text #1ID : 3Format : PGSMuxing mode : zlibCodec ID : S_HDMV/PGSCodec ID/Info : Picture based subtitle format used on BDs/HD-DVDsDuration : 27 minBit rate : 25.3 kb/sCount of elements : 784Stream size : 4.94 MiB (0%)Language : JapaneseDefault : YesForced : No

Text #2ID : 4Format : PGSMuxing mode : zlibCodec ID : S_HDMV/PGSCodec ID/Info : Picture based subtitle format used on BDs/HD-DVDsDuration : 27 minBit rate : 15.5 kb/sCount of elements : 673Stream size : 3.03 MiB (0%)Language : EnglishDefault : NoForced : No

Text #3ID : 5Format : PGSMuxing mode : zlibCodec ID : S_HDMV/PGSCodec ID/Info : Picture based subtitle format used on BDs/HD-DVDsDuration : 27 minBit rate : 13.8 kb/sCount of elements : 719Stream size : 2.70 MiB (0%)Language : ChineseDefault : NoForced : No

Menu00:00:00.000 : en:Chapter 100:02:18.138 : en:Chapter 200:07:20.773 : en:Chapter 300:13:13.834 : en:Chapter 400:19:02.099 : en:Chapter 500:25:59.182 : en:Chapter 6
<a href="viewtopic.php?t=5183221" class="postLink">...5183221</a>
<a href="viewtopic.php?t=5186872" class="postLink">...5186872</a>
<a href="viewtopic.php?t=5260306" class="postLink">...5260306</a>
BDRemux
1. Она и её квартира
2. Она и её небо
3. Она и её взгляд
4. Она и наша история


Трекер:  [ 28-Июл-2016 17:00 ]

  

Скачать .torrent

Размер .torrent файла 45 KB


Размер: 8.1 GB
Хэш (hash) релиза: 942f3dbe4f4e84b56a13f35cda280adfdfa68ebb
Подписка на обновления:

Торренты, похожие на Она и её кот - Всё течёт, всё меняется - Kanojo to Kanojo no Neko: Everything Flows скачать торрент

Форум Название Автор Размер S L Добавлен
Аниме | HD Rips ·· Она и её кот - Всё течёт, всё меняется - / Kanojo to Kanojo no Neko: Everything Flows / She and Her Cat: Everything Flows (Сакамото Кадзуя) [TV][4 из 4][Без хардсаба][RUS(ext), UKR, JAP+SUB][2016, повседневность, BDRip][1080p] Galfimbul 17527462571.63 GB 0 0 1472995668

16:27

4-Сен-16

Аниме | HD Rips ·· Она и её кот - Всё течёт, всё меняется - / Kanojo to Kanojo no Neko: Everything Flows / She and Her Cat: Everything Flows [TV] [4 из 4] [Без хардсаба] [JAP+SUB] [2016, повседневность, BDRip] [1080p] Galfimbul 15053212181.4 GB 0 0 1469626111

16:28

27-Июл-16

Аниме | HD Rips ·· Она и её кот - Всё течёт, всё меняется - / Kanojo to Kanojo no Neko: Everything Flows / She and Her Cat: Everything Flows (Сакамото Кадзуя) [TV][Без хардсаба][4 из 4][UKR, JAP+SUB] & [3 из 4][RUS(ext)][2016, повседневность, WEBRip][1080p] Galfimbul 866014855826 MB 0 0 1459196138

23:15

28-Мар-16

Аниме | HD Rips ·· Она и её кот - Всё течёт, всё меняется - / Kanojo to Kanojo no Neko: Everything Flows / She and Her Cat: Everything Flows (Сакамото Кадзуя) [TV][3 из 4][Без хардсаба][RUS(ext), UKR, JAP+SUB][2016, повседневность, WEBRip][1080p] Galfimbul 654872716625 MB 0 0 1458665082

19:44

22-Мар-16

Аниме | HD Rips ·· Она и её кот - Всё течёт, всё меняется - / Kanojo to Kanojo no Neko: Everything Flows / She and Her Cat: Everything Flows (Сакамото Кадзуя) [TV][Без хардсаба][2 из 4][JAP+SUB] & [1 из 4][RUS(ext)][2016, повседневность, WEBRip][1080p] Galfimbul 409832439391 MB 0 0 1458040775

14:19

15-Мар-16

Аниме | HD Rips ·· Она и её кот - Всё течёт, всё меняется - / Kanojo to Kanojo no Neko: Everything Flows / She and Her Cat: Everything Flows (Сакамото Кадзуя) [TV][1 из 4][Без хардсаба][RUS(ext), JAP+SUB][2016, повседневность, WEBRip][1080p] Galfimbul 198917127190 MB 0 0 1457282745

19:45

6-Мар-16

Аниме | Rips ·· Она и её кот - Всё течёт, всё меняется - / Kanojo to Kanojo no Neko: Everything Flows / She and Her Cat: Everything Flows (Сакамото Кадзуя) [TV][1 из 4][Без хардсаба][RUS(ext), JAP+SUB][2016, повседневность, WEBRip][1080p] Galfimbul 198917132190 MB 0 0 1457282707

19:45

6-Мар-16

Аниме | HD Rips ·· Она и её кот - Всё течёт, всё меняется - / Kanojo to Kanojo no Neko: Everything Flows / She and Her Cat: Everything Flows (Сакамото Кадзуя) [TV][1 из 4][Без хардсаба][JAP+SUB][2016, повседневность, WEBRip][1080p] Galfimbul 187601438179 MB 0 0 1457194665

19:17

5-Мар-16

Аниме | Rips ·· Она и её кот - Всё течёт, всё меняется - / Kanojo to Kanojo no Neko: Everything Flows / She and Her Cat: Everything F (Сакамото Кадзу) [TV] [4 из 4] [Без хардсаба] [RUS(ext), JAP+SUB] [2016, повседневность, WEBRip] Galfimbul 243830185233 MB 0 0 1477253568

23:12

23-Окт-16

Аниме | HD Rips ·· Она и её кот - Всё течёт, всё меняется - / Kanojo to Kanojo no Neko: Everything Flows / She and Her Cat: Everything F (Сакамото Кадзу) [TV] [1 из 4] [без хардсаба] [RUS(int), JAP+SUB] [2016 г., повседневность, WEBRip] [720p] Galfimbul 122173164117 MB 0 0 1457635644

21:47

10-Мар-16

Еще никто не оставлял запись к записи скачать торрент Она и её кот - Всё течёт, всё меняется - Kanojo to Kanojo no Neko: Everything Flows . Будь первым!

!Обратная связь