Скачать через торрент музыку Тайная жизнь домашних животных The Secret Life of Pets бесплатно без регистрации torrent

Если у вас наблюдаются проблемы со скриншотами, переходом по ссылками, скачиванием торрентов - проблемы в блокировщике рекламы AdBlock. #хорошегоДня!


Статистика раздачи
Размер:  268 MB   |    Зарегистрирован:  1 год 4 месяца   |    .torrent скачан:  40 раз   |   
Раздают:  1  
   
Загрузка...
 
Автор Сообщение

Galfimbul

avatar Galfimbul


Тайная жизнь домашних животных ● The Secret Life of Pets
ЖанрGenre: Score
КомпозиторComposer: Alexandre Desplat
Год выпуска дискаCD release: 2016
Год выпуска фильмаMovie release: 2016
Производитель дискаCD manufacturer: USA
Издатель (лейбл)Label: Backlot Music
Номер по каталогуCatalog #: BLM646
АудиокодекCodec: FLAC (*.flac)
Тип рипаRip type: tracks+.cue
Битрейт аудиоBit rate: lossless
ПродолжительностьDuration: 00:51:41
ИсточникSource: собственный рип ● own rip - Release # FX-349
Наличие сканов в раздачeScans included: нет ● no
СсылкиLinks: Кинопоиск | IMDB | Wikipedia | SoundtrackCollector
MP3: <a href="viewtopic.php?t=5258709" class="postLink">(Score/MF) Тайная жизнь домашних животных / The Secret Life of Pets (Alexandre Desplat) - 2016, MP3, 320 kbps</a>
Alexandre Desplat: <a href="tracker.php?f=786&nm=Alexandre+Desplat" class="postLink">lossless</a> | <a href="tracker.php?f=785&nm=Alexandre+Desplat" class="postLink">lossy</a>
01. Meet The Pets [0:02:37.43]
02. Katie's Leaving [0:00:55.13]
03. Meet Duke [0:03:36.07]
04. Fetch Me A Stick [0:03:09.42]
05. Telenovela Squirrels [0:01:24.31]
06. Hijack! [0:02:00.40]
07. Gidget Meets Tiberius [0:04:56.62]
08. Initiation Time [0:01:01.44]
09. Rooftop Route [0:01:27.19]
10. The Viper [0:01:49.40]
11. You Have An Owner? [0:03:04.27]
12. Good Morning Max [0:01:29.35]
13. Sewer Chase [0:01:09.08]
14. Who's With Me? [0:01:21.62]
15. Me Like What Me See [0:00:54.29]
16. Traveling Bossa [0:01:56.03]
17. Flushed Out To Brooklyn [0:02:47.71]
18. Sausages! [0:01:13.52]
19. Duke's Old House / Captured [0:03:03.37]
20. Brooklyn Bridge Showdown [0:02:34.28]
21. Rescuing Duke [0:02:46.34]
22. Wet But Handsome / Blue Taxi [0:01:24.09]
23. Max And Gidget [0:01:36.71]
24. Welcome Home [0:01:57.03]
25. The Sausage Factory Singers / We Go Together [0:01:24.06]
Exact Audio Copy V1.1 from 23. June 2015

EAC extraction logfile from 26. July 2016, 13:19

Alexandre Desplat / The Secret Life Of Pets (Original Motion Picture Soundtrack)

Used drive : PLEXTOR CD-R PX-230A Adapter: 1 ID: 0

Read mode : SecureUtilize accurate stream : YesDefeat audio cache : YesMake use of C2 pointers : No

Read offset correction : 738Overread into Lead-In and Lead-Out : NoFill up missing offset samples with silence : YesDelete leading and trailing silent blocks : NoNull samples used in CRC calculations : YesUsed interface : Native Win32 interface for Win NT & 2000Gap handling : Appended to previous track

Used output format : User Defined EncoderSelected bitrate : 1024 kBit/sQuality : HighAdd ID3 tag : NoCommand line compressor : C:\Program Files\Exact Audio Copy\Flac\flac.exeAdditional command line options : -6 -V -T "ARTIST=%artist%" -T "TITLE=%title%" -T "ALBUM=%albumtitle%" -T "DATE=%year%"-T "TRACKNUMBER=%tracknr%" -T "GENRE=%genre%" -T "COMMENT=%comment%" -T "ALBUMARTIST=%albuminterpret%" -T "COMPOSER=%composer%"-T "DISCNUMBER=%cdnumber%" -T "TOTALDISCS=%totalcds%" -T "TOTALTRACKS=%numtracks%" %source% -o %dest%

TOC of the extracted CD

Track | Start | Length | Start sector | End sector --------------------------------------------------------- 1 | 0:00.00 | 2:37.43 | 0 | 11817 2 | 2:37.43 | 0:55.13 | 11818 | 15955 3 | 3:32.56 | 3:36.07 | 15956 | 32162 4 | 7:08.63 | 3:09.42 | 32163 | 46379 5 | 10:18.30 | 1:24.31 | 46380 | 52710 6 | 11:42.61 | 2:00.40 | 52711 | 61750 7 | 13:43.26 | 4:56.62 | 61751 | 84012 8 | 18:40.13 | 1:01.44 | 84013 | 88631 9 | 19:41.57 | 1:27.19 | 88632 | 95175 10 | 21:09.01 | 1:49.40 | 95176 | 103390 11 | 22:58.41 | 3:04.27 | 103391 | 117217 12 | 26:02.68 | 1:29.35 | 117218 | 123927 13 | 27:32.28 | 1:09.08 | 123928 | 129110 14 | 28:41.36 | 1:21.62 | 129111 | 135247 15 | 30:03.23 | 0:54.29 | 135248 | 139326 16 | 30:57.52 | 1:56.03 | 139327 | 148029 17 | 32:53.55 | 2:47.71 | 148030 | 160625 18 | 35:41.51 | 1:13.52 | 160626 | 166152 19 | 36:55.28 | 3:03.37 | 166153 | 179914 20 | 39:58.65 | 2:34.28 | 179915 | 191492 21 | 42:33.18 | 2:46.34 | 191493 | 203976 22 | 45:19.52 | 1:24.09 | 203977 | 210285 23 | 46:43.61 | 1:36.71 | 210286 | 217556 24 | 48:20.57 | 1:57.03 | 217557 | 226334 25 | 50:17.60 | 1:24.06 | 226335 | 232640

Track 1

Filename C:\Music\01 - Alexandre Desplat - Meet The Pets.wav

Pre-gap length 0:00:02.00

Peak level 94.5 % Extraction speed 3.5 X Track quality 100.0 % Test CRC 9D9B56D2 Copy CRC 9D9B56D2 Track not present in AccurateRip database Copy OK

Track 2

Filename C:\Music\02 - Alexandre Desplat - Katie's Leaving.wav

Peak level 53.7 % Extraction speed 2.9 X Track quality 100.0 % Test CRC EB8EF8C9 Copy CRC EB8EF8C9 Track not present in AccurateRip database Copy OK

Track 3

Filename C:\Music\03 - Alexandre Desplat - Meet Duke.wav

Peak level 94.4 % Extraction speed 3.7 X Track quality 99.9 % Test CRC D0A3FC87 Copy CRC D0A3FC87 Track not present in AccurateRip database Copy OK

Track 4

Filename C:\Music\04 - Alexandre Desplat - Fetch Me A Stick.wav

Peak level 95.4 % Extraction speed 3.6 X Track quality 99.9 % Test CRC A203E5A1 Copy CRC A203E5A1 Track not present in AccurateRip database Copy OK

Track 5

Filename C:\Music\05 - Alexandre Desplat - Telenovela Squirrels.wav

Peak level 94.3 % Extraction speed 3.4 X Track quality 100.0 % Test CRC BBE062A2 Copy CRC BBE062A2 Track not present in AccurateRip database Copy OK

Track 6

Filename C:\Music\06 - Alexandre Desplat - Hijack!.wav

Peak level 91.9 % Extraction speed 3.9 X Track quality 100.0 % Test CRC C6874F99 Copy CRC C6874F99 Track not present in AccurateRip database Copy OK

Track 7

Filename C:\Music\07 - Alexandre Desplat - Gidget Meets Tiberius.wav

Peak level 95.3 % Extraction speed 3.7 X Track quality 99.9 % Test CRC 0C1E54D1 Copy CRC 0C1E54D1 Track not present in AccurateRip database Copy OK

Track 8

Filename C:\Music\08 - Alexandre Desplat - Initiation Time.wav

Pre-gap length 0:00:00.08

Peak level 94.4 % Extraction speed 2.8 X Track quality 100.0 % Test CRC 4289404F Copy CRC 4289404F Track not present in AccurateRip database Copy OK

Track 9

Filename C:\Music\09 - Alexandre Desplat - Rooftop Route.wav

Peak level 94.4 % Extraction speed 3.5 X Track quality 100.0 % Test CRC F57B64AA Copy CRC F57B64AA Track not present in AccurateRip database Copy OK

Track 10

Filename C:\Music\10 - Alexandre Desplat - The Viper.wav

Peak level 94.4 % Extraction speed 3.2 X Track quality 99.9 % Test CRC 943B8632 Copy CRC 943B8632 Track not present in AccurateRip database Copy OK

Track 11

Filename C:\Music\11 - Alexandre Desplat - You Have An Owner.wav

Peak level 94.7 % Extraction speed 4.1 X Track quality 100.0 % Test CRC 3AD935EB Copy CRC 3AD935EB Track not present in AccurateRip database Copy OK

Track 12

Filename C:\Music\12 - Alexandre Desplat - Good Morning Max.wav

Peak level 78.4 % Extraction speed 3.2 X Track quality 100.0 % Test CRC B443416A Copy CRC B443416A Track not present in AccurateRip database Copy OK

Track 13

Filename C:\Music\13 - Alexandre Desplat - Sewer Chase.wav

Peak level 94.6 % Extraction speed 3.3 X Track quality 100.0 % Test CRC 894D4E7B Copy CRC 894D4E7B Track not present in AccurateRip database Copy OK

Track 14

Filename C:\Music\14 - Alexandre Desplat - Who's With Me.wav

Peak level 94.4 % Extraction speed 3.3 X Track quality 100.0 % Test CRC 1BA4CF2C Copy CRC 1BA4CF2C Track not present in AccurateRip database Copy OK

Track 15

Filename C:\Music\15 - Alexandre Desplat - Me Like What Me See.wav

Peak level 100.0 % Extraction speed 2.8 X Track quality 100.0 % Test CRC A89E8153 Copy CRC A89E8153 Track not present in AccurateRip database Copy OK

Track 16

Filename C:\Music\16 - Alexandre Desplat - Traveling Bossa.wav

Peak level 94.7 % Extraction speed 3.6 X Track quality 100.0 % Test CRC E71A1FA7 Copy CRC E71A1FA7 Track not present in AccurateRip database Copy OK

Track 17

Filename C:\Music\17 - Alexandre Desplat - Flushed Out To Brooklyn.wav

Peak level 94.4 % Extraction speed 3.4 X Track quality 99.9 % Test CRC 9D1FF454 Copy CRC 9D1FF454 Track not present in AccurateRip database Copy OK

Track 18

Filename C:\Music\18 - Alexandre Desplat - Sausages!.wav

Peak level 94.7 % Extraction speed 2.8 X Track quality 99.8 % Test CRC F6EF3A36 Copy CRC F6EF3A36 Track not present in AccurateRip database Copy OK

Track 19

Filename C:\Music\19 - Alexandre Desplat - Duke's Old House - Captured.wav

Peak level 100.0 % Extraction speed 4.2 X Track quality 100.0 % Test CRC BD997F3E Copy CRC BD997F3E Track not present in AccurateRip database Copy OK

Track 20

Filename C:\Music\20 - Alexandre Desplat - Brooklyn Bridge Showdown.wav

Peak level 94.6 % Extraction speed 3.4 X Track quality 99.9 % Test CRC B391BDA0 Copy CRC B391BDA0 Track not present in AccurateRip database Copy OK

Track 21

Filename C:\Music\21 - Alexandre Desplat - Rescuing Duke.wav

Peak level 94.5 % Extraction speed 3.7 X Track quality 100.0 % Test CRC 80B629C3 Copy CRC 80B629C3 Track not present in AccurateRip database Copy OK

Track 22

Filename C:\Music\22 - Alexandre Desplat - Wet But Handsome - Blue Taxi.wav

Peak level 95.1 % Extraction speed 3.1 X Track quality 100.0 % Test CRC 7730B6AC Copy CRC 7730B6AC Track not present in AccurateRip database Copy OK

Track 23

Filename C:\Music\23 - Alexandre Desplat - Max And Gidget.wav

Pre-gap length 0:00:18.19

Peak level 93.8 % Extraction speed 3.0 X Track quality 99.8 % Test CRC 66B9AE72 Copy CRC 66B9AE72 Track not present in AccurateRip database Copy OK

Track 24

Filename C:\Music\24 - Alexandre Desplat - Welcome Home.wav

Pre-gap length 0:00:00.14

Peak level 94.4 % Extraction speed 3.7 X Track quality 100.0 % Test CRC 4457F1DF Copy CRC 4457F1DF Track not present in AccurateRip database Copy OK

Track 25

Filename C:\Music\25 - The Sausage Factory Singers - We Go Together.wav

Peak level 82.0 % Extraction speed 3.1 X Track quality 100.0 % Test CRC 0FE6058F Copy CRC 0FE6058F Track not present in AccurateRip database Copy OK

None of the tracks are present in the AccurateRip database

No errors occurred

End of status report

---- CUETools DB Plugin V2.1.6

[CTDB TOCID: Yp6G_mum_kYrMMzjIrmk9S4Krjg-] disk not present in databaseSubmit result: Yp6G_mum_kYrMMzjIrmk9S4Krjg- has been uploaded

==== Log checksum 59B73E62F0A703E6D2EC91A51B0D36251B0906BA2D44CCBCFB1C96AF2E051B49 ====
REM GENRE SoundtrackREM DATE 2016REM DISCID 360C1D19REM COMMENT "ExactAudioCopy v1.1 - Release # FX-349"PERFORMER "Alexandre Desplat"TITLE "The Secret Life Of Pets"FILE "01 - Alexandre Desplat - Meet The Pets.wav" WAVE TRACK 01 AUDIO TITLE "Meet The Pets" PERFORMER "Alexandre Desplat" INDEX 01 00:00:00FILE "02 - Alexandre Desplat - Katie's Leaving.wav" WAVE TRACK 02 AUDIO TITLE "Katie's Leaving" PERFORMER "Alexandre Desplat" INDEX 01 00:00:00FILE "03 - Alexandre Desplat - Meet Duke.wav" WAVE TRACK 03 AUDIO TITLE "Meet Duke" PERFORMER "Alexandre Desplat" INDEX 01 00:00:00FILE "04 - Alexandre Desplat - Fetch Me A Stick.wav" WAVE TRACK 04 AUDIO TITLE "Fetch Me A Stick" PERFORMER "Alexandre Desplat" INDEX 01 00:00:00FILE "05 - Alexandre Desplat - Telenovela Squirrels.wav" WAVE TRACK 05 AUDIO TITLE "Telenovela Squirrels" PERFORMER "Alexandre Desplat" INDEX 01 00:00:00FILE "06 - Alexandre Desplat - Hijack!.wav" WAVE TRACK 06 AUDIO TITLE "Hijack!" PERFORMER "Alexandre Desplat" INDEX 01 00:00:00FILE "07 - Alexandre Desplat - Gidget Meets Tiberius.wav" WAVE TRACK 07 AUDIO TITLE "Gidget Meets Tiberius" PERFORMER "Alexandre Desplat" INDEX 01 00:00:00 TRACK 08 AUDIO TITLE "Initiation Time" PERFORMER "Alexandre Desplat" INDEX 00 04:56:54FILE "08 - Alexandre Desplat - Initiation Time.wav" WAVE INDEX 01 00:00:00FILE "09 - Alexandre Desplat - Rooftop Route.wav" WAVE TRACK 09 AUDIO TITLE "Rooftop Route" PERFORMER "Alexandre Desplat" INDEX 01 00:00:00FILE "10 - Alexandre Desplat - The Viper.wav" WAVE TRACK 10 AUDIO TITLE "The Viper" PERFORMER "Alexandre Desplat" INDEX 01 00:00:00FILE "11 - Alexandre Desplat - You Have An Owner.wav" WAVE TRACK 11 AUDIO TITLE "You Have An Owner?" PERFORMER "Alexandre Desplat" INDEX 01 00:00:00FILE "12 - Alexandre Desplat - Good Morning Max.wav" WAVE TRACK 12 AUDIO TITLE "Good Morning Max" PERFORMER "Alexandre Desplat" INDEX 01 00:00:00FILE "13 - Alexandre Desplat - Sewer Chase.wav" WAVE TRACK 13 AUDIO TITLE "Sewer Chase" PERFORMER "Alexandre Desplat" INDEX 01 00:00:00FILE "14 - Alexandre Desplat - Who's With Me.wav" WAVE TRACK 14 AUDIO TITLE "Who's With Me?" PERFORMER "Alexandre Desplat" INDEX 01 00:00:00FILE "15 - Alexandre Desplat - Me Like What Me See.wav" WAVE TRACK 15 AUDIO TITLE "Me Like What Me See" PERFORMER "Alexandre Desplat" INDEX 01 00:00:00FILE "16 - Alexandre Desplat - Traveling Bossa.wav" WAVE TRACK 16 AUDIO TITLE "Traveling Bossa" PERFORMER "Alexandre Desplat" INDEX 01 00:00:00FILE "17 - Alexandre Desplat - Flushed Out To Brooklyn.wav" WAVE TRACK 17 AUDIO TITLE "Flushed Out To Brooklyn" PERFORMER "Alexandre Desplat" INDEX 01 00:00:00FILE "18 - Alexandre Desplat - Sausages!.wav" WAVE TRACK 18 AUDIO TITLE "Sausages!" PERFORMER "Alexandre Desplat" INDEX 01 00:00:00FILE "19 - Alexandre Desplat - Duke's Old House - Captured.wav" WAVE TRACK 19 AUDIO TITLE "Duke's Old House / Captured" PERFORMER "Alexandre Desplat" INDEX 01 00:00:00FILE "20 - Alexandre Desplat - Brooklyn Bridge Showdown.wav" WAVE TRACK 20 AUDIO TITLE "Brooklyn Bridge Showdown" PERFORMER "Alexandre Desplat" INDEX 01 00:00:00FILE "21 - Alexandre Desplat - Rescuing Duke.wav" WAVE TRACK 21 AUDIO TITLE "Rescuing Duke" PERFORMER "Alexandre Desplat" INDEX 01 00:00:00FILE "22 - Alexandre Desplat - Wet But Handsome - Blue Taxi.wav" WAVE TRACK 22 AUDIO TITLE "Wet But Handsome / Blue Taxi" PERFORMER "Alexandre Desplat" INDEX 01 00:00:00 TRACK 23 AUDIO TITLE "Max And Gidget" PERFORMER "Alexandre Desplat" INDEX 00 01:05:65FILE "23 - Alexandre Desplat - Max And Gidget.wav" WAVE INDEX 01 00:00:00 TRACK 24 AUDIO TITLE "Welcome Home" PERFORMER "Alexandre Desplat" INDEX 00 01:36:57FILE "24 - Alexandre Desplat - Welcome Home.wav" WAVE INDEX 01 00:00:00FILE "25 - The Sausage Factory Singers - We Go Together.wav" WAVE TRACK 25 AUDIO TITLE "We Go Together" PERFORMER "The Sausage Factory Singers" INDEX 01 00:00:00


Трекер:  [ 26-Июл-2016 18:00 ]

  

Скачать .torrent

Размер .torrent файла 13 KB


Размер: 268 MB
Хэш (hash) релиза: a9823cd10a83828a5efea1106dc3d692a6e7ad76

Торренты, похожие на Тайная жизнь домашних животных The Secret Life of Pets скачать торрент

Форум Название Автор Размер S L Добавлен
Саундтреки к фильмам и мультфильмам (lossless) ·· (Score / Cartoon) Тайная жизнь домашних животных / The Secret Life of Pets (by Alexandre Desplat) - 2016, FLAC (tracks+.cue), lossless Galfimbul 288404490275 MB 0 0 1480859147

16:45

4-Дек-16

Саундтреки к фильмам и мультфильмам (mp3) ·· (Score) Тайная жизнь домашних животных / The Secret Life of Pets (Alexandre Desplat) - 2016, MP3, 320 kbps Galfimbul 127167390121 MB 0 0 1469285333

17:48

23-Июл-16

Еще никто не оставлял запись к записи скачать торрент Тайная жизнь домашних животных The Secret Life of Pets . Будь первым!

!Обратная связь