Скачать через торрент музыку Франкенштейн 90 Frankenstein 90 бесплатно без регистрации torrent

Если у вас наблюдаются проблемы со скриншотами, переходом по ссылками, скачиванием торрентов - проблемы в блокировщике рекламы AdBlock. #хорошегоДня!


Статистика раздачи
Размер:  202 MB   |    Зарегистрирован:  1 год 2 месяца   |    .torrent скачан:  12 раз   |   
Раздают:  1  
   
Загрузка...
 
Автор Сообщение

Galfimbul

avatar Galfimbul


Франкенштейн 90 ● Frankenstein 90
ЖанрGenre: Score
КомпозиторComposer: Armando Trovajoli
Год выпуска дискаCD release: 2016
Год выпуска фильмаMovie release: 1984
Производитель дискаCD manufacturer: digiCon, Germany
Издатель (лейбл)Label: Music Box Records
Номер по каталогуCatalog #: MBR-090
АудиокодекCodec: FLAC (*.flac)
Тип рипаRip type: tracks+.cue
Битрейт аудиоBit rate: lossless
ПродолжительностьDuration: 00:30:48
ИсточникSource: собственный рип ● own rip - Release # FX-347
Наличие сканов в раздачeScans included: 600 dpi JPG
СсылкиLinks: Кинопоиск | IMDB | Wikipedia | SoundtrackCollector
MP3: <a href="viewtopic.php?t=99999999999999999999" class="postLink">coming soon</a>
Armando Trovajoli: <a href="tracker.php?f=786&nm=Armando+Trovajoli" class="postLink">lossless</a> | <a href="tracker.php?f=785&nm=Armando+Trovajoli" class="postLink">lossy</a>
01. La dernière valse [0:02:39.08]
02. Frankenstein 90 [0:02:06.20]
03. Découverte de la nature [0:02:49.26]
04. Frankenstein 1930 [0:00:58.62]
05. À la recherche de Frankenstein [0:02:08.36]
06. Strip-tease [0:02:48.25]
07. La chambre d'Adélaïde [0:02:04.29]
08. Le château de Frankenstein [0:02:41.64]
09. Poursuite dans la forêt [0:01:24.01]
10. Poursuite dans la forêt (2e version) [0:01:42.49]
11. L'évasion de Frank [0:01:30.43]
12. Fuite de Frank et Élisabeth [0:03:23.48]
13. Frankenstein 90 (reprise) [0:01:27.23]
14. Frankenstein 90 (2e version) [0:03:03.66]
Exact Audio Copy V1.1 from 23. June 2015

EAC extraction logfile from 25. July 2016, 16:20

Armando Trovajoli / Frankenstein 90

Used drive : PLEXTOR CD-R PX-230A Adapter: 1 ID: 0

Read mode : SecureUtilize accurate stream : YesDefeat audio cache : YesMake use of C2 pointers : No

Read offset correction : 738Overread into Lead-In and Lead-Out : NoFill up missing offset samples with silence : YesDelete leading and trailing silent blocks : NoNull samples used in CRC calculations : YesUsed interface : Native Win32 interface for Win NT & 2000Gap handling : Appended to previous track

Used output format : User Defined EncoderSelected bitrate : 1024 kBit/sQuality : HighAdd ID3 tag : NoCommand line compressor : C:\Program Files (x86)\Exact Audio Copy\FLAC\FLAC.EXEAdditional command line options : -6 -V -T "ARTIST=%artist%" -T "TITLE=%title%" -T "ALBUM=%albumtitle%" -T "DATE=%year%"-T "TRACKNUMBER=%tracknr%" -T "GENRE=%genre%" -T "COMMENT=%comment%" -T "ALBUMARTIST=%albuminterpret%" -T "COMPOSER=%composer%"-T "DISCNUMBER=%cdnumber%" -T "TOTALDISCS=%totalcds%" -T "TOTALTRACKS=%numtracks%" %source% -o %dest%

TOC of the extracted CD

Track | Start | Length | Start sector | End sector --------------------------------------------------------- 1 | 0:00.00 | 2:39.08 | 0 | 11932 2 | 2:39.08 | 2:06.20 | 11933 | 21402 3 | 4:45.28 | 2:49.26 | 21403 | 34103 4 | 7:34.54 | 0:58.62 | 34104 | 38515 5 | 8:33.41 | 2:08.36 | 38516 | 48151 6 | 10:42.02 | 2:48.25 | 48152 | 60776 7 | 13:30.27 | 2:04.29 | 60777 | 70105 8 | 15:34.56 | 2:41.64 | 70106 | 82244 9 | 18:16.45 | 1:24.01 | 82245 | 88545 10 | 19:40.46 | 1:42.49 | 88546 | 96244 11 | 21:23.20 | 1:30.43 | 96245 | 103037 12 | 22:53.63 | 3:23.48 | 103038 | 118310 13 | 26:17.36 | 1:27.23 | 118311 | 124858 14 | 27:44.59 | 3:03.66 | 124859 | 138649

Track 1

Filename C:\Music\01 - Armando Trovajoli - La dernière valse.wav

Pre-gap length 0:00:02.00

Peak level 79.4 % Extraction speed 4.1 X Track quality 100.0 % Test CRC 3E48390D Copy CRC 3E48390D Track not present in AccurateRip database Copy OK

Track 2

Filename C:\Music\02 - Armando Trovajoli - Frankenstein 90.wav

Pre-gap length 0:00:02.00

Peak level 86.9 % Extraction speed 4.5 X Track quality 100.0 % Test CRC 2CCCAF5B Copy CRC 2CCCAF5B Track not present in AccurateRip database Copy OK

Track 3

Filename C:\Music\03 - Armando Trovajoli - Découverte de la nature.wav

Pre-gap length 0:00:02.00

Peak level 88.5 % Extraction speed 4.3 X Track quality 100.0 % Test CRC 306D8AC5 Copy CRC 306D8AC5 Track not present in AccurateRip database Copy OK

Track 4

Filename C:\Music\04 - Armando Trovajoli - Frankenstein 1930.wav

Pre-gap length 0:00:02.00

Peak level 63.9 % Extraction speed 3.8 X Track quality 100.0 % Test CRC CCAA9FA5 Copy CRC CCAA9FA5 Track not present in AccurateRip database Copy OK

Track 5

Filename C:\Music\05 - Armando Trovajoli - À la recherche de Frankenstein.wav

Pre-gap length 0:00:02.00

Peak level 79.9 % Extraction speed 3.3 X Track quality 99.9 % Test CRC 6A209C97 Copy CRC 6A209C97 Track not present in AccurateRip database Copy OK

Track 6

Filename C:\Music\06 - Armando Trovajoli - Strip-tease.wav

Pre-gap length 0:00:02.00

Peak level 79.4 % Extraction speed 3.0 X Track quality 99.9 % Test CRC EC2E64F2 Copy CRC EC2E64F2 Track not present in AccurateRip database Copy OK

Track 7

Filename C:\Music\07 - Armando Trovajoli - La chambre d'Adélaïde.wav

Pre-gap length 0:00:02.00

Peak level 72.5 % Extraction speed 3.9 X Track quality 100.0 % Test CRC 5E0B4AC2 Copy CRC 5E0B4AC2 Track not present in AccurateRip database Copy OK

Track 8

Filename C:\Music\08 - Armando Trovajoli - Le château de Frankenstein.wav

Pre-gap length 0:00:02.00

Peak level 80.2 % Extraction speed 3.3 X Track quality 100.0 % Test CRC 5EBB77E5 Copy CRC 5EBB77E5 Track not present in AccurateRip database Copy OK

Track 9

Filename C:\Music\09 - Armando Trovajoli - Poursuite dans la forêt.wav

Pre-gap length 0:00:02.00

Peak level 69.7 % Extraction speed 3.2 X Track quality 99.8 % Test CRC 8F8EF8D4 Copy CRC 8F8EF8D4 Track not present in AccurateRip database Copy OK

Track 10

Filename C:\Music\10 - Armando Trovajoli - Poursuite dans la forêt (2e version).wav

Pre-gap length 0:00:02.00

Peak level 71.5 % Extraction speed 4.6 X Track quality 100.0 % Test CRC 29126A39 Copy CRC 29126A39 Track not present in AccurateRip database Copy OK

Track 11

Filename C:\Music\11 - Armando Trovajoli - L'évasion de Frank.wav

Pre-gap length 0:00:02.00

Peak level 67.1 % Extraction speed 3.3 X Track quality 100.0 % Test CRC E8BCA1C4 Copy CRC E8BCA1C4 Track not present in AccurateRip database Copy OK

Track 12

Filename C:\Music\12 - Armando Trovajoli - Fuite de Frank et Élisabeth.wav

Pre-gap length 0:00:01.74

Peak level 80.5 % Extraction speed 3.5 X Track quality 100.0 % Test CRC DCFBEF22 Copy CRC DCFBEF22 Track not present in AccurateRip database Copy OK

Track 13

Filename C:\Music\13 - Armando Trovajoli - Frankenstein 90 (reprise).wav

Pre-gap length 0:00:02.00

Peak level 71.5 % Extraction speed 3.0 X Track quality 99.8 % Test CRC DE43CAF7 Copy CRC DE43CAF7 Track not present in AccurateRip database Copy OK

Track 14

Filename C:\Music\14 - Armando Trovajoli - Frankenstein 90 (2e version).wav

Pre-gap length 0:00:02.00

Peak level 67.8 % Extraction speed 3.3 X Track quality 100.0 % Test CRC EEB65CE5 Copy CRC EEB65CE5 Track not present in AccurateRip database Copy OK

None of the tracks are present in the AccurateRip database

No errors occurred

End of status report

---- CUETools DB Plugin V2.1.6

[CTDB TOCID: ieFC_zJjVVYMT1Y_tD.H5eBo7xQ-] foundSubmit result: ieFC_zJjVVYMT1Y_tD.H5eBo7xQ- has been confirmedTrack | CTDB Status 1 | (1/1) Accurately ripped 2 | (1/1) Accurately ripped 3 | (1/1) Accurately ripped 4 | (1/1) Accurately ripped 5 | (1/1) Accurately ripped 6 | (1/1) Accurately ripped 7 | (1/1) Accurately ripped 8 | (1/1) Accurately ripped 9 | (1/1) Accurately ripped 10 | (1/1) Accurately ripped 11 | (1/1) Accurately ripped 12 | (1/1) Accurately ripped 13 | (1/1) Accurately ripped 14 | (1/1) Accurately ripped

==== Log checksum B0F077BAA1CB261B62DFE0205E21AA2D170A03FCA326CAEE10B41CE6E35E213B ====
REM GENRE SoundtrackREM DATE 1984REM DISCID C707380EREM COMMENT "ExactAudioCopy v1.1 - Release # FX-347"PERFORMER "Armando Trovajoli"TITLE "Frankenstein 90"FILE "01 - Armando Trovajoli - La derniere valse.wav" WAVE TRACK 01 AUDIO TITLE "La dernière valse" PERFORMER "Armando Trovajoli" FLAGS DCP INDEX 01 00:00:00 TRACK 02 AUDIO TITLE "Frankenstein 90" PERFORMER "Armando Trovajoli" FLAGS DCP INDEX 00 02:37:08FILE "02 - Armando Trovajoli - Frankenstein 90.wav" WAVE INDEX 01 00:00:00 TRACK 03 AUDIO TITLE "Découverte de la nature" PERFORMER "Armando Trovajoli" FLAGS DCP INDEX 00 02:04:20FILE "03 - Armando Trovajoli - Decouverte de la nature.wav" WAVE INDEX 01 00:00:00 TRACK 04 AUDIO TITLE "Frankenstein 1930" PERFORMER "Armando Trovajoli" FLAGS DCP INDEX 00 02:47:26FILE "04 - Armando Trovajoli - Frankenstein 1930.wav" WAVE INDEX 01 00:00:00 TRACK 05 AUDIO TITLE "À la recherche de Frankenstein" PERFORMER "Armando Trovajoli" FLAGS DCP INDEX 00 00:56:62FILE "05 - Armando Trovajoli - A la recherche de Frankenstein.wav" WAVE INDEX 01 00:00:00 TRACK 06 AUDIO TITLE "Strip-tease" PERFORMER "Armando Trovajoli" FLAGS DCP INDEX 00 02:06:36FILE "06 - Armando Trovajoli - Strip-tease.wav" WAVE INDEX 01 00:00:00 TRACK 07 AUDIO TITLE "La chambre d'Adélaïde" PERFORMER "Armando Trovajoli" FLAGS DCP INDEX 00 02:46:25FILE "07 - Armando Trovajoli - La chambre d'Adelaide.wav" WAVE INDEX 01 00:00:00 TRACK 08 AUDIO TITLE "Le château de Frankenstein" PERFORMER "Armando Trovajoli" FLAGS DCP INDEX 00 02:02:29FILE "08 - Armando Trovajoli - Le chateau de Frankenstein.wav" WAVE INDEX 01 00:00:00 TRACK 09 AUDIO TITLE "Poursuite dans la forêt" PERFORMER "Armando Trovajoli" FLAGS DCP INDEX 00 02:39:64FILE "09 - Armando Trovajoli - Poursuite dans la foret.wav" WAVE INDEX 01 00:00:00 TRACK 10 AUDIO TITLE "Poursuite dans la forêt (2e version)" PERFORMER "Armando Trovajoli" FLAGS DCP INDEX 00 01:22:01FILE "10 - Armando Trovajoli - Poursuite dans la foret (2e version).wav" WAVE INDEX 01 00:00:00 TRACK 11 AUDIO TITLE "L'évasion de Frank" PERFORMER "Armando Trovajoli" FLAGS DCP INDEX 00 01:40:49FILE "11 - Armando Trovajoli - L'evasion de Frank.wav" WAVE INDEX 01 00:00:00 TRACK 12 AUDIO TITLE "Fuite de Frank et Élisabeth" PERFORMER "Armando Trovajoli" FLAGS DCP INDEX 00 01:28:44FILE "12 - Armando Trovajoli - Fuite de Frank et Elisabeth.wav" WAVE INDEX 01 00:00:00 TRACK 13 AUDIO TITLE "Frankenstein 90 (reprise)" PERFORMER "Armando Trovajoli" FLAGS DCP INDEX 00 03:21:48FILE "13 - Armando Trovajoli - Frankenstein 90 (reprise).wav" WAVE INDEX 01 00:00:00 TRACK 14 AUDIO TITLE "Frankenstein 90 (2e version)" PERFORMER "Armando Trovajoli" FLAGS DCP INDEX 00 01:25:23FILE "14 - Armando Trovajoli - Frankenstein 90 (2e version).wav" WAVE INDEX 01 00:00:00


Трекер:  [ 25-Июл-2016 18:30 ]

  

Скачать .torrent

Размер .torrent файла 10 KB


Размер: 202 MB
Хэш (hash) релиза: f49bc7faafe01f1e72d18d73cf1443039ab49d57

Торренты, похожие на Франкенштейн 90 Frankenstein 90 скачать торрент

Форум Название Автор Размер S L Добавлен
Саундтреки к фильмам и мультфильмам (mp3) ·· (Score) Франкенштейн 90 / Frankenstein 90 (by Armando Trovajoli) - 2016 (1984), MP3 (tracks) 320 kbps Galfimbul 10320052198 MB 0 0 1469466522

20:08

25-Июл-16

Еще никто не оставлял запись к записи скачать торрент Франкенштейн 90 Frankenstein 90 . Будь первым!

!Обратная связь