Скачать через торрент музыку В поисках Дори Finding Dory бесплатно без регистрации torrent

Если у вас наблюдаются проблемы со скриншотами, переходом по ссылками, скачиванием торрентов - проблемы в блокировщике рекламы AdBlock. #хорошегоДня!


Статистика раздачи
Размер:  361 MB   |    Зарегистрирован:  1 год 2 месяца   |    .torrent скачан:  340 раз   |   
Раздают:  1  
   
Загрузка...
 
Автор Сообщение

Galfimbul

avatar Galfimbul


В поисках Дори ● Finding Dory
ЖанрGenre: Score
КомпозиторComposer: Thomas Newman
Год выпуска дискаCD release: 2016
Год выпуска фильмаMovie release: 2016
Производитель дискаCD manufacturer: arvato, Germany
Издатель (лейбл)Label: Walt Disney Records
Номер по каталогуCatalog #: 00050087328283
АудиокодекCodec: FLAC (*.flac)
Тип рипаRip type: tracks+.cue
Битрейт аудиоBit rate: lossless
ПродолжительностьDuration: 01:08:49
ИсточникSource: собственный рип ● own rip - Release # FX-336
Наличие сканов в раздачeScans included: 600 dpi JPG
СсылкиLinks: Кинопоиск | IMDB | Wikipedia | SoundtrackCollector
MP3: <a href="viewtopic.php?t=5243386" class="postLink">(Score/MF) В поисках Дори / Finding Dory (by Thomas Newman) - 2016, MP3 (tracks) 320 kbps</a>
Thomas Newman: <a href="tracker.php?f=786&nm=Thomas+Newman" class="postLink">lossless</a> | <a href="tracker.php?f=785&nm=Thomas+Newman" class="postLink">lossy</a>
01. Kelpcake [0:00:46.18]
02. Finding Dory (Main Title) [0:00:55.21]
03. Lost at Sea [0:01:36.02]
04. One Year Later [0:02:26.52]
05. Migration Song [0:00:35.26]
06. "O, We're Going Home" [0:01:38.23]
07. Jewel of Morro Bay [0:02:00.19]
08. Gnarly Chop [0:01:39.64]
09. Squid Chase [0:01:28.53]
10. Sigourney Weaver [0:01:21.25]
11. Hank [0:03:19.55]
12. Nobody's Fine [0:03:29.36]
13. Rebecca Darling [0:01:54.42]
14. Meet Destiny [0:01:07.37]
15. Joker at Work [0:01:16.58]
16. Becky Flies [0:03:53.09]
17. Hands! [0:02:24.66]
18. Almost Home [0:02:02.00]
19. Open Ocean [0:03:19.24]
20. Two Lefts and a Right [0:03:59.34]
21. Everything About You [0:01:43.15]
22. Quarantine [0:02:41.71]
23. Warp [0:01:03.45]
24. All Alone [0:00:53.12]
25. ...Shells [0:04:47.56]
26. No Walls [0:02:25.18]
27. Okay with Crazy [0:01:50.03]
28. Hide and Seek [0:01:53.33]
29. Quite a View [0:01:27.27]
30. Sia / Unforgettable [0:03:20.38]
31. Three Hearts (End Title) [0:01:36.66]
32. Loon Tune [0:01:20.01]
33. Fish Who Wander [0:01:18.45]
34. Release [0:01:13.64]
Exact Audio Copy V1.1 from 23. June 2015

EAC extraction logfile from 17. June 2016, 14:45

Thomas Newman / Finding Dory

Used drive : PLEXTOR CD-R PX-230A Adapter: 1 ID: 0

Read mode : SecureUtilize accurate stream : YesDefeat audio cache : YesMake use of C2 pointers : No

Read offset correction : 738Overread into Lead-In and Lead-Out : NoFill up missing offset samples with silence : YesDelete leading and trailing silent blocks : NoNull samples used in CRC calculations : YesUsed interface : Native Win32 interface for Win NT & 2000Gap handling : Appended to previous track

Used output format : User Defined EncoderSelected bitrate : 1024 kBit/sQuality : HighAdd ID3 tag : NoCommand line compressor : C:\Program Files\Exact Audio Copy\Flac\flac.exeAdditional command line options : -6 -V -T "ARTIST=%artist%" -T "TITLE=%title%" -T "ALBUM=%albumtitle%" -T "DATE=%year%"-T "TRACKNUMBER=%tracknr%" -T "GENRE=%genre%" -T "COMMENT=%comment%" -T "ALBUMARTIST=%albuminterpret%" -T "COMPOSER=%composer%"-T "DISCNUMBER=%cdnumber%" -T "TOTALDISCS=%totalcds%" -T "TOTALTRACKS=%numtracks%" %source% -o %dest%

TOC of the extracted CD

Track | Start | Length | Start sector | End sector --------------------------------------------------------- 1 | 0:02.48 | 0:46.18 | 198 | 3665 2 | 0:48.66 | 0:55.21 | 3666 | 7811 3 | 1:44.12 | 1:36.02 | 7812 | 15013 4 | 3:20.14 | 2:26.52 | 15014 | 26015 5 | 5:46.66 | 0:35.26 | 26016 | 28666 6 | 6:22.17 | 1:38.23 | 28667 | 36039 7 | 8:00.40 | 2:00.19 | 36040 | 45058 8 | 10:00.59 | 1:39.64 | 45059 | 52547 9 | 11:40.48 | 1:28.53 | 52548 | 59200 10 | 13:09.26 | 1:21.25 | 59201 | 65300 11 | 14:30.51 | 3:19.55 | 65301 | 80280 12 | 17:50.31 | 3:29.36 | 80281 | 95991 13 | 21:19.67 | 1:54.42 | 95992 | 104583 14 | 23:14.34 | 1:07.37 | 104584 | 109645 15 | 24:21.71 | 1:16.58 | 109646 | 115403 16 | 25:38.54 | 3:53.09 | 115404 | 132887 17 | 29:31.63 | 2:24.66 | 132888 | 143753 18 | 31:56.54 | 2:02.00 | 143754 | 152903 19 | 33:58.54 | 3:19.24 | 152904 | 167852 20 | 37:18.03 | 3:59.34 | 167853 | 185811 21 | 41:17.37 | 1:43.15 | 185812 | 193551 22 | 43:00.52 | 2:41.71 | 193552 | 205697 23 | 45:42.48 | 1:03.45 | 205698 | 210467 24 | 46:46.18 | 0:53.12 | 210468 | 214454 25 | 47:39.30 | 4:47.56 | 214455 | 236035 26 | 52:27.11 | 2:25.18 | 236036 | 246928 27 | 54:52.29 | 1:50.03 | 246929 | 255181 28 | 56:42.32 | 1:53.33 | 255182 | 263689 29 | 58:35.65 | 1:27.27 | 263690 | 270241 30 | 60:03.17 | 3:20.38 | 270242 | 285279 31 | 63:23.55 | 1:36.66 | 285280 | 292545 32 | 65:00.46 | 1:20.01 | 292546 | 298546 33 | 66:20.47 | 1:18.45 | 298547 | 304441 34 | 67:39.17 | 1:13.64 | 304442 | 309980

Track 1

Filename C:\Music\01 - Thomas Newman - Kelpcake.wav

Pre-gap length 0:00:04.48

Peak level 85.9 % Extraction speed 2.4 X Track quality 100.0 % Test CRC 60376BB0 Copy CRC 60376BB0 Track not present in AccurateRip database Copy OK

Track 2

Filename C:\Music\02 - Thomas Newman - Finding Dory (Main Title).wav

Peak level 86.8 % Extraction speed 2.8 X Track quality 100.0 % Test CRC DB96BD3F Copy CRC DB96BD3F Track not present in AccurateRip database Copy OK

Track 3

Filename C:\Music\03 - Thomas Newman - Lost at Sea.wav

Peak level 86.3 % Extraction speed 3.4 X Track quality 100.0 % Test CRC 47360665 Copy CRC 47360665 Track not present in AccurateRip database Copy OK

Track 4

Filename C:\Music\04 - Thomas Newman - One Year Later.wav

Peak level 98.8 % Extraction speed 3.4 X Track quality 99.9 % Test CRC 40660F5E Copy CRC 40660F5E Track not present in AccurateRip database Copy OK

Track 5

Filename C:\Music\05 - Thomas Newman - Migration Song.wav

Pre-gap length 0:00:01.54

Peak level 93.5 % Extraction speed 2.6 X Track quality 100.0 % Test CRC 7642CDEA Copy CRC 7642CDEA Track not present in AccurateRip database Copy OK

Track 6

Filename C:\Music\06 - Thomas Newman - ''O, We're Going Home''.wav

Peak level 98.8 % Extraction speed 3.2 X Track quality 100.0 % Test CRC ECBC53FB Copy CRC ECBC53FB Track not present in AccurateRip database Copy OK

Track 7

Filename C:\Music\07 - Thomas Newman - Jewel of Morro Bay.wav

Peak level 98.9 % Extraction speed 3.5 X Track quality 100.0 % Test CRC 43B461CA Copy CRC 43B461CA Track not present in AccurateRip database Copy OK

Track 8

Filename C:\Music\08 - Thomas Newman - Gnarly Chop.wav

Peak level 98.9 % Extraction speed 3.8 X Track quality 100.0 % Test CRC 4A35FFBC Copy CRC 4A35FFBC Track not present in AccurateRip database Copy OK

Track 9

Filename C:\Music\09 - Thomas Newman - Squid Chase.wav

Peak level 98.9 % Extraction speed 3.5 X Track quality 100.0 % Test CRC 8709BFBB Copy CRC 8709BFBB Track not present in AccurateRip database Copy OK

Track 10

Filename C:\Music\10 - Thomas Newman - Sigourney Weaver.wav

Peak level 98.9 % Extraction speed 2.7 X Track quality 99.8 % Test CRC 288FADE6 Copy CRC 288FADE6 Track not present in AccurateRip database Copy OK

Track 11

Filename C:\Music\11 - Thomas Newman - Hank.wav

Peak level 98.9 % Extraction speed 3.9 X Track quality 100.0 % Test CRC 7E523D15 Copy CRC 7E523D15 Track not present in AccurateRip database Copy OK

Track 12

Filename C:\Music\12 - Thomas Newman - Nobody's Fine.wav

Peak level 98.9 % Extraction speed 3.6 X Track quality 99.9 % Test CRC 242CC756 Copy CRC 242CC756 Track not present in AccurateRip database Copy OK

Track 13

Filename C:\Music\13 - Thomas Newman - Rebecca Darling.wav

Peak level 98.9 % Extraction speed 3.4 X Track quality 100.0 % Test CRC 64C882C0 Copy CRC 64C882C0 Track not present in AccurateRip database Copy OK

Track 14

Filename C:\Music\14 - Thomas Newman - Meet Destiny.wav

Peak level 98.9 % Extraction speed 3.6 X Track quality 100.0 % Test CRC 301FFE89 Copy CRC 301FFE89 Track not present in AccurateRip database Copy OK

Track 15

Filename C:\Music\15 - Thomas Newman - Joker at Work.wav

Peak level 98.9 % Extraction speed 3.3 X Track quality 100.0 % Test CRC 001BF9EE Copy CRC 001BF9EE Track not present in AccurateRip database Copy OK

Track 16

Filename C:\Music\16 - Thomas Newman - Becky Flies.wav

Peak level 98.9 % Extraction speed 4.2 X Track quality 100.0 % Test CRC B9711E95 Copy CRC B9711E95 Track not present in AccurateRip database Copy OK

Track 17

Filename C:\Music\17 - Thomas Newman - Hands!.wav

Peak level 100.0 % Extraction speed 3.8 X Track quality 100.0 % Test CRC C6E245F8 Copy CRC C6E245F8 Track not present in AccurateRip database Copy OK

Track 18

Filename C:\Music\18 - Thomas Newman - Almost Home.wav

Peak level 98.8 % Extraction speed 3.5 X Track quality 100.0 % Test CRC 33047A06 Copy CRC 33047A06 Track not present in AccurateRip database Copy OK

Track 19

Filename C:\Music\19 - Thomas Newman - Open Ocean.wav

Peak level 98.9 % Extraction speed 3.9 X Track quality 100.0 % Test CRC 9EF028E5 Copy CRC 9EF028E5 Track not present in AccurateRip database Copy OK

Track 20

Filename C:\Music\20 - Thomas Newman - Two Lefts and a Right.wav

Pre-gap length 0:00:01.15

Peak level 98.9 % Extraction speed 3.6 X Track quality 100.0 % Test CRC F42EE75F Copy CRC F42EE75F Track not present in AccurateRip database Copy OK

Track 21

Filename C:\Music\21 - Thomas Newman - Everything About You.wav

Pre-gap length 0:00:01.38

Peak level 28.9 % Extraction speed 3.1 X Track quality 100.0 % Test CRC 86F4905F Copy CRC 86F4905F Track not present in AccurateRip database Copy OK

Track 22

Filename C:\Music\22 - Thomas Newman - Quarantine.wav

Pre-gap length 0:00:01.24

Peak level 98.9 % Extraction speed 3.6 X Track quality 100.0 % Test CRC 03331E6C Copy CRC 03331E6C Track not present in AccurateRip database Copy OK

Track 23

Filename C:\Music\23 - Thomas Newman - Warp.wav

Peak level 97.3 % Extraction speed 3.2 X Track quality 100.0 % Test CRC 5360A790 Copy CRC 5360A790 Track not present in AccurateRip database Copy OK

Track 24

Filename C:\Music\24 - Thomas Newman - All Alone.wav

Peak level 88.2 % Extraction speed 3.2 X Track quality 100.0 % Test CRC 32D63F3C Copy CRC 32D63F3C Track not present in AccurateRip database Copy OK

Track 25

Filename C:\Music\25 - Thomas Newman - ...Shells.wav

Peak level 87.7 % Extraction speed 4.0 X Track quality 100.0 % Test CRC 9FFED553 Copy CRC 9FFED553 Track not present in AccurateRip database Copy OK

Track 26

Filename C:\Music\26 - Thomas Newman - No Walls.wav

Peak level 98.9 % Extraction speed 3.6 X Track quality 100.0 % Test CRC 941F493B Copy CRC 941F493B Track not present in AccurateRip database Copy OK

Track 27

Filename C:\Music\27 - Thomas Newman - Okay with Crazy.wav

Peak level 98.9 % Extraction speed 3.4 X Track quality 100.0 % Test CRC 76DBBE71 Copy CRC 76DBBE71 Track not present in AccurateRip database Copy OK

Track 28

Filename C:\Music\28 - Thomas Newman - Hide and Seek.wav

Peak level 85.5 % Extraction speed 3.6 X Track quality 100.0 % Test CRC 3FE9D59A Copy CRC 3FE9D59A Track not present in AccurateRip database Copy OK

Track 29

Filename C:\Music\29 - Thomas Newman - Quite a View.wav

Pre-gap length 0:00:01.60

Peak level 93.0 % Extraction speed 3.0 X Track quality 100.0 % Test CRC 9E2AF072 Copy CRC 9E2AF072 Track not present in AccurateRip database Copy OK

Track 30

Filename C:\Music\30 - Sia - Unforgettable.wav

Pre-gap length 0:00:02.10

Peak level 98.9 % Extraction speed 3.3 X Track quality 99.9 % Test CRC 817D8ABC Copy CRC 817D8ABC Track not present in AccurateRip database Copy OK

Track 31

Filename C:\Music\31 - Thomas Newman - Three Hearts (End Title).wav

Pre-gap length 0:00:02.42

Peak level 100.0 % Extraction speed 3.2 X Track quality 100.0 % Test CRC 329EAFAD Copy CRC 329EAFAD Track not present in AccurateRip database Copy OK

Track 32

Filename C:\Music\32 - Thomas Newman - Loon Tune.wav

Peak level 100.0 % Extraction speed 2.7 X Track quality 99.8 % Test CRC 7B9B1A54 Copy CRC 7B9B1A54 Track not present in AccurateRip database Copy OK

Track 33

Filename C:\Music\33 - Thomas Newman - Fish Who Wander.wav

Peak level 100.0 % Extraction speed 3.2 X Track quality 100.0 % Test CRC 0F811B3C Copy CRC 0F811B3C Track not present in AccurateRip database Copy OK

Track 34

Filename C:\Music\34 - Thomas Newman - Release.wav

Peak level 70.8 % Extraction speed 3.1 X Track quality 100.0 % Test CRC FA148816 Copy CRC FA148816 Track not present in AccurateRip database Copy OK

None of the tracks are present in the AccurateRip database

No errors occurred

End of status report

---- CUETools DB Plugin V2.1.6

[CTDB TOCID: MCAwARbS_GpvHv5TvApcysVvPP4-] disk not present in databaseSubmit result: MCAwARbS_GpvHv5TvApcysVvPP4- has been uploaded

==== Log checksum AD49682C813EE249D430216D7AA935C87B2CF1191055EE5FE952B7CDB175197A ====
REM GENRE SoundtrackREM DATE 2016REM DISCID CE102322REM COMMENT "ExactAudioCopy v1.1"PERFORMER "Thomas Newman"TITLE "Finding Dory"FILE "01 - Thomas Newman - Kelpcake.wav" WAVE TRACK 01 AUDIO TITLE "Kelpcake" PERFORMER "Thomas Newman" PREGAP 00:02:48 INDEX 01 00:00:00FILE "02 - Thomas Newman - Finding Dory (Main Title).wav" WAVE TRACK 02 AUDIO TITLE "Finding Dory (Main Title)" PERFORMER "Thomas Newman" INDEX 01 00:00:00FILE "03 - Thomas Newman - Lost at Sea.wav" WAVE TRACK 03 AUDIO TITLE "Lost at Sea" PERFORMER "Thomas Newman" INDEX 01 00:00:00FILE "04 - Thomas Newman - One Year Later.wav" WAVE TRACK 04 AUDIO TITLE "One Year Later" PERFORMER "Thomas Newman" INDEX 01 00:00:00 TRACK 05 AUDIO TITLE "Migration Song" PERFORMER "Thomas Newman" INDEX 00 02:24:73FILE "05 - Thomas Newman - Migration Song.wav" WAVE INDEX 01 00:00:00FILE "06 - Thomas Newman - ''O, We're Going Home''.wav" WAVE TRACK 06 AUDIO TITLE "'O, We're Going Home'" PERFORMER "Thomas Newman" INDEX 01 00:00:00FILE "07 - Thomas Newman - Jewel of Morro Bay.wav" WAVE TRACK 07 AUDIO TITLE "Jewel of Morro Bay" PERFORMER "Thomas Newman" INDEX 01 00:00:00FILE "08 - Thomas Newman - Gnarly Chop.wav" WAVE TRACK 08 AUDIO TITLE "Gnarly Chop" PERFORMER "Thomas Newman" INDEX 01 00:00:00FILE "09 - Thomas Newman - Squid Chase.wav" WAVE TRACK 09 AUDIO TITLE "Squid Chase" PERFORMER "Thomas Newman" INDEX 01 00:00:00FILE "10 - Thomas Newman - Sigourney Weaver.wav" WAVE TRACK 10 AUDIO TITLE "Sigourney Weaver" PERFORMER "Thomas Newman" INDEX 01 00:00:00FILE "11 - Thomas Newman - Hank.wav" WAVE TRACK 11 AUDIO TITLE "Hank" PERFORMER "Thomas Newman" INDEX 01 00:00:00FILE "12 - Thomas Newman - Nobody's Fine.wav" WAVE TRACK 12 AUDIO TITLE "Nobody's Fine" PERFORMER "Thomas Newman" INDEX 01 00:00:00FILE "13 - Thomas Newman - Rebecca Darling.wav" WAVE TRACK 13 AUDIO TITLE "Rebecca Darling" PERFORMER "Thomas Newman" INDEX 01 00:00:00FILE "14 - Thomas Newman - Meet Destiny.wav" WAVE TRACK 14 AUDIO TITLE "Meet Destiny" PERFORMER "Thomas Newman" INDEX 01 00:00:00FILE "15 - Thomas Newman - Joker at Work.wav" WAVE TRACK 15 AUDIO TITLE "Joker at Work" PERFORMER "Thomas Newman" INDEX 01 00:00:00FILE "16 - Thomas Newman - Becky Flies.wav" WAVE TRACK 16 AUDIO TITLE "Becky Flies" PERFORMER "Thomas Newman" INDEX 01 00:00:00FILE "17 - Thomas Newman - Hands!.wav" WAVE TRACK 17 AUDIO TITLE "Hands!" PERFORMER "Thomas Newman" INDEX 01 00:00:00FILE "18 - Thomas Newman - Almost Home.wav" WAVE TRACK 18 AUDIO TITLE "Almost Home" PERFORMER "Thomas Newman" INDEX 01 00:00:00FILE "19 - Thomas Newman - Open Ocean.wav" WAVE TRACK 19 AUDIO TITLE "Open Ocean" PERFORMER "Thomas Newman" INDEX 01 00:00:00 TRACK 20 AUDIO TITLE "Two Lefts and a Right" PERFORMER "Thomas Newman" INDEX 00 03:18:09FILE "20 - Thomas Newman - Two Lefts and a Right.wav" WAVE INDEX 01 00:00:00 TRACK 21 AUDIO TITLE "Everything About You" PERFORMER "Thomas Newman" INDEX 00 03:57:71FILE "21 - Thomas Newman - Everything About You.wav" WAVE INDEX 01 00:00:00 TRACK 22 AUDIO TITLE "Quarantine" PERFORMER "Thomas Newman" INDEX 00 01:41:66FILE "22 - Thomas Newman - Quarantine.wav" WAVE INDEX 01 00:00:00FILE "23 - Thomas Newman - Warp.wav" WAVE TRACK 23 AUDIO TITLE "Warp" PERFORMER "Thomas Newman" INDEX 01 00:00:00FILE "24 - Thomas Newman - All Alone.wav" WAVE TRACK 24 AUDIO TITLE "All Alone" PERFORMER "Thomas Newman" INDEX 01 00:00:00FILE "25 - Thomas Newman - ...Shells.wav" WAVE TRACK 25 AUDIO TITLE "...Shells" PERFORMER "Thomas Newman" INDEX 01 00:00:00FILE "26 - Thomas Newman - No Walls.wav" WAVE TRACK 26 AUDIO TITLE "No Walls" PERFORMER "Thomas Newman" INDEX 01 00:00:00FILE "27 - Thomas Newman - Okay with Crazy.wav" WAVE TRACK 27 AUDIO TITLE "Okay with Crazy" PERFORMER "Thomas Newman" INDEX 01 00:00:00FILE "28 - Thomas Newman - Hide and Seek.wav" WAVE TRACK 28 AUDIO TITLE "Hide and Seek" PERFORMER "Thomas Newman" INDEX 01 00:00:00 TRACK 29 AUDIO TITLE "Quite a View" PERFORMER "Thomas Newman" INDEX 00 01:51:48FILE "29 - Thomas Newman - Quite a View.wav" WAVE INDEX 01 00:00:00 TRACK 30 AUDIO TITLE "Unforgettable" PERFORMER "Sia" INDEX 00 01:25:17FILE "30 - Sia - Unforgettable.wav" WAVE INDEX 01 00:00:00 TRACK 31 AUDIO TITLE "Three Hearts (End Title)" PERFORMER "Thomas Newman" INDEX 00 03:17:71FILE "31 - Thomas Newman - Three Hearts (End Title).wav" WAVE INDEX 01 00:00:00FILE "32 - Thomas Newman - Loon Tune.wav" WAVE TRACK 32 AUDIO TITLE "Loon Tune" PERFORMER "Thomas Newman" INDEX 01 00:00:00FILE "33 - Thomas Newman - Fish Who Wander.wav" WAVE TRACK 33 AUDIO TITLE "Fish Who Wander" PERFORMER "Thomas Newman" INDEX 01 00:00:00FILE "34 - Thomas Newman - Release.wav" WAVE TRACK 34 AUDIO TITLE "Release" PERFORMER "Thomas Newman" INDEX 01 00:00:00


Трекер:  [ 21-Июл-2016 17:30 ]

  

Скачать .torrent

Размер .torrent файла 17 KB


Размер: 361 MB
Хэш (hash) релиза: 478fe43307082f3529d575f4e9700655c40a4542

Торренты, похожие на В поисках Дори Finding Dory скачать торрент

Форум Название Автор Размер S L Добавлен
Саундтреки к фильмам и мультфильмам (mp3) ·· (Score/MF) В поисках Дори / Finding Dory (by Thomas Newman) - 2016, MP3 (tracks) 320 kbps Galfimbul 167066290159 MB 0 0 1466185790

20:49

17-Июн-16

Саундтреки к фильмам и мультфильмам (lossless) ·· (Score) В поисках Дори / Finding Dory (by Thomas Newman) - 2016, FLAC (tracks+.cue), lossless Galfimbul 357073609341 MB 0 0 1466184098

20:21

17-Июн-16

Еще никто не оставлял запись к записи скачать торрент В поисках Дори Finding Dory . Будь первым!

!Обратная связь