Скачать через торрент музыку Несмотря на падающий снег Despite the Falling Snow бесплатно без регистрации torrent

Если у вас наблюдаются проблемы со скриншотами, переходом по ссылками, скачиванием торрентов - проблемы в блокировщике рекламы AdBlock. #хорошегоДня!


Статистика раздачи
Размер:  198 MB   |    Зарегистрирован:  1 год 1 месяц   |    .torrent скачан:  34 раза   |   
Раздают:  1  
   
Загрузка...
 
Автор Сообщение

Galfimbul

avatar Galfimbul


Несмотря на падающий снег ● Despite the Falling Snow
ЖанрGenre: Score
КомпозиторComposer: Rachel Portman
Год выпуска дискаCD release: 2016
Год выпуска фильмаMovie release: 2016
Производитель дискаCD manufacturer: Sony DADC, UK
Издатель (лейбл)Label: Cube Soundtracks
Номер по каталогуCatalog #: FLYCUB20120
АудиокодекCodec: FLAC (*.flac)
Тип рипаRip type: tracks+.cue
Битрейт аудиоBit rate: lossless
ПродолжительностьDuration: 00:51:53
ИсточникSource: lztr.us / vivalavida
Наличие сканов в раздачeScans included: 600 dpi JPG
СсылкиLinks: Кинопоиск | IMDB | Wikipedia | SoundtrackCollector
MP3: <a href="viewtopic.php?t=999999999999999" class="postLink">coming soon</a>
Rachel Portman: <a href="tracker.php?f=786&nm=Rachel+Portman" class="postLink">lossless</a> | <a href="tracker.php?f=785&nm=Rachel+Portman" class="postLink">lossy</a>
01. Despite the Falling Snow [0:01:54.01]
02. The Last Dinner [0:01:50.82]
03. I Have Instructions [0:02:24.90]
04. New York 1961 [0:01:09.10]
05. You Can Never Go Back [0:01:54.46]
06. Misha In Action [0:01:37.97]
07. The Drop Goes Wrong [0:01:26.20]
08. Katya Remembers [0:03:07.57]
09. Misha Goes to State Archive [0:02:30.09]
10. It's Time You Took Something [0:01:45.64]
11. Katya Betrays Sasha [0:03:17.20]
12. I Won't Ruin Him [0:03:26.30]
13. The Wedding [0:02:51.42]
14. Misha Blackmails Katya [0:01:47.44]
15. It's Treason, Katya [0:01:31.01]
16. Dmitri Was My Father [0:02:49.89]
17. I Was Blackmailed [0:02:05.96]
18. We're On Our Own [0:02:56.36]
19. Farewell at the Safe House [0:01:33.70]
20. Misha Confesses [0:01:57.33]
21. Misha Explains [0:03:00.06]
22. Katya's Letter [0:04:56.88]
Exact Audio Copy V1.0 beta 4 from 7. December 2014

EAC extraction logfile from 28. April 2016, 18:41

Rachel Portman / Despite the Falling Snow (Original Motion Picture Score)

Used drive : ASUS SDR-08B1-U A Adapter: 1 ID: 0

Read mode : SecureUtilize accurate stream : YesDefeat audio cache : YesMake use of C2 pointers : No

Read offset correction : 6Overread into Lead-In and Lead-Out : NoFill up missing offset samples with silence : YesDelete leading and trailing silent blocks : NoNull samples used in CRC calculations : YesUsed interface : Native Win32 interface for Win NT & 2000Gap handling : Appended to previous track

Used output format : User Defined EncoderSelected bitrate : 1024 kBit/sQuality : HighAdd ID3 tag : NoCommand line compressor : D:\Program Files\Exact Audio Copy\FLAC\FLAC.EXEAdditional command line options : -6 -V -T "ARTIST=%artist%" -T "TITLE=%title%" -T "ALBUM=%albumtitle%" -T "DATE=%year%"-T "TRACKNUMBER=%tracknr%" -T "GENRE=%genre%" -T "COMMENT=%comment%" -T "BAND=%albuminterpret%" -T "ALBUMARTIST=%albuminterpret%"-T "COMPOSER=%composer%" %haslyrics%--tag-from-file=LYRICS="%lyricsfile%"%haslyrics% -T "DISCNUMBER=%cdnumber%" -T "TOTALDISCS=%totalcds%"-T "TOTALTRACKS=%numtracks%" %hascover%--picture="%coverfile%"%hascover% %source% -o %dest%

TOC of the extracted CD

Track | Start | Length | Start sector | End sector --------------------------------------------------------- 1 | 0:00.00 | 1:54.01 | 0 | 8550 2 | 1:54.01 | 1:50.62 | 8551 | 16862 3 | 3:44.63 | 2:24.68 | 16863 | 27730 4 | 6:09.56 | 1:09.08 | 27731 | 32913 5 | 7:18.64 | 1:54.35 | 32914 | 41498 6 | 9:13.24 | 1:37.73 | 41499 | 48846 7 | 10:51.22 | 1:26.15 | 48847 | 55311 8 | 12:17.37 | 3:07.43 | 55312 | 69379 9 | 15:25.05 | 2:30.07 | 69380 | 80636 10 | 17:55.12 | 1:45.48 | 80637 | 88559 11 | 19:40.60 | 3:17.15 | 88560 | 103349 12 | 22:58.00 | 3:26.23 | 103350 | 118822 13 | 26:24.23 | 2:51.32 | 118823 | 131679 14 | 29:15.55 | 1:47.33 | 131680 | 139737 15 | 31:03.13 | 1:31.01 | 139738 | 146563 16 | 32:34.14 | 2:49.67 | 146564 | 159305 17 | 35:24.06 | 2:05.72 | 159306 | 168752 18 | 37:30.03 | 2:56.27 | 168753 | 181979 19 | 40:26.30 | 1:33.53 | 181980 | 189007 20 | 42:00.08 | 1:57.25 | 189008 | 197807 21 | 43:57.33 | 3:00.05 | 197808 | 211312 22 | 46:57.38 | 4:56.66 | 211313 | 233578

Track 1

Filename E:\Soundtrack\Rachel Portman - Despite the Falling Snow (Original Motion Picture Score)\01 - Despite the Falling Snow.wav

Pre-gap length 0:00:02.00

Peak level 89.4 % Extraction speed 2.3 X Track quality 100.0 % Test CRC BE9A6B40 Copy CRC BE9A6B40 Track not present in AccurateRip database Copy OK

Track 2

Filename E:\Soundtrack\Rachel Portman - Despite the Falling Snow (Original Motion Picture Score)\02 - The Last Dinner.wav

Peak level 17.2 % Extraction speed 2.4 X Track quality 100.0 % Test CRC 86DD3A65 Copy CRC 86DD3A65 Track not present in AccurateRip database Copy OK

Track 3

Filename E:\Soundtrack\Rachel Portman - Despite the Falling Snow (Original Motion Picture Score)\03 - I Have Instructions.wav

Peak level 95.5 % Extraction speed 2.7 X Track quality 100.0 % Test CRC B28015CE Copy CRC B28015CE Track not present in AccurateRip database Copy OK

Track 4

Filename E:\Soundtrack\Rachel Portman - Despite the Falling Snow (Original Motion Picture Score)\04 - New York 1961.wav

Peak level 48.0 % Extraction speed 2.3 X Track quality 100.0 % Test CRC A5AAD5EF Copy CRC A5AAD5EF Track not present in AccurateRip database Copy OK

Track 5

Filename E:\Soundtrack\Rachel Portman - Despite the Falling Snow (Original Motion Picture Score)\05 - You Can Never Go Back.wav

Peak level 34.2 % Extraction speed 2.8 X Track quality 100.0 % Test CRC 1AAAD330 Copy CRC 1AAAD330 Track not present in AccurateRip database Copy OK

Track 6

Filename E:\Soundtrack\Rachel Portman - Despite the Falling Snow (Original Motion Picture Score)\06 - Misha In Action.wav

Peak level 69.4 % Extraction speed 2.7 X Track quality 100.0 % Test CRC C488B8B7 Copy CRC C488B8B7 Track not present in AccurateRip database Copy OK

Track 7

Filename E:\Soundtrack\Rachel Portman - Despite the Falling Snow (Original Motion Picture Score)\07 - The Drop Goes Wrong.wav

Peak level 52.8 % Extraction speed 2.8 X Track quality 100.0 % Test CRC A730AE61 Copy CRC A730AE61 Track not present in AccurateRip database Copy OK

Track 8

Filename E:\Soundtrack\Rachel Portman - Despite the Falling Snow (Original Motion Picture Score)\08 - Katya Remembers.wav

Peak level 35.5 % Extraction speed 2.8 X Track quality 99.9 % Test CRC F1FEEB83 Copy CRC F1FEEB83 Track not present in AccurateRip database Copy OK

Track 9

Filename E:\Soundtrack\Rachel Portman - Despite the Falling Snow (Original Motion Picture Score)\09 - Misha Goes to State Archive.wav

Peak level 74.2 % Extraction speed 3.4 X Track quality 100.0 % Test CRC 3EC9BAA2 Copy CRC 3EC9BAA2 Track not present in AccurateRip database Copy OK

Track 10

Filename E:\Soundtrack\Rachel Portman - Despite the Falling Snow (Original Motion Picture Score)\10 - It's Time You Took Something.wav

Peak level 17.0 % Extraction speed 3.3 X Track quality 100.0 % Test CRC 1A11E20B Copy CRC 1A11E20B Track not present in AccurateRip database Copy OK

Track 11

Filename E:\Soundtrack\Rachel Portman - Despite the Falling Snow (Original Motion Picture Score)\11 - Katya Betrays Sasha.wav

Peak level 60.3 % Extraction speed 3.2 X Track quality 99.9 % Test CRC B7FD798D Copy CRC B7FD798D Track not present in AccurateRip database Copy OK

Track 12

Filename E:\Soundtrack\Rachel Portman - Despite the Falling Snow (Original Motion Picture Score)\12 - I Won't Ruin Him.wav

Peak level 27.9 % Extraction speed 4.0 X Track quality 100.0 % Test CRC 68F3D00B Copy CRC 68F3D00B Track not present in AccurateRip database Copy OK

Track 13

Filename E:\Soundtrack\Rachel Portman - Despite the Falling Snow (Original Motion Picture Score)\13 - The Wedding.wav

Peak level 40.0 % Extraction speed 4.1 X Track quality 100.0 % Test CRC F8112F58 Copy CRC F8112F58 Track not present in AccurateRip database Copy OK

Track 14

Filename E:\Soundtrack\Rachel Portman - Despite the Falling Snow (Original Motion Picture Score)\14 - Misha Blackmails Katya.wav

Peak level 45.3 % Extraction speed 3.7 X Track quality 100.0 % Test CRC F0495DEB Copy CRC F0495DEB Track not present in AccurateRip database Copy OK

Track 15

Filename E:\Soundtrack\Rachel Portman - Despite the Falling Snow (Original Motion Picture Score)\15 - It's Treason, Katya.wav

Peak level 17.4 % Extraction speed 3.7 X Track quality 100.0 % Test CRC AF6EB7B8 Copy CRC AF6EB7B8 Track not present in AccurateRip database Copy OK

Track 16

Filename E:\Soundtrack\Rachel Portman - Despite the Falling Snow (Original Motion Picture Score)\16 - Dmitri Was My Father.wav

Peak level 20.6 % Extraction speed 4.3 X Track quality 100.0 % Test CRC B732636B Copy CRC B732636B Track not present in AccurateRip database Copy OK

Track 17

Filename E:\Soundtrack\Rachel Portman - Despite the Falling Snow (Original Motion Picture Score)\17 - I Was Blackmailed.wav

Peak level 63.6 % Extraction speed 4.2 X Track quality 100.0 % Test CRC D250FFEF Copy CRC D250FFEF Track not present in AccurateRip database Copy OK

Track 18

Filename E:\Soundtrack\Rachel Portman - Despite the Falling Snow (Original Motion Picture Score)\18 - We're On Our Own.wav

Peak level 18.4 % Extraction speed 4.5 X Track quality 100.0 % Test CRC 4E774571 Copy CRC 4E774571 Track not present in AccurateRip database Copy OK

Track 19

Filename E:\Soundtrack\Rachel Portman - Despite the Falling Snow (Original Motion Picture Score)\19 - Farewell at the Safe House.wav

Peak level 41.1 % Extraction speed 4.0 X Track quality 100.0 % Test CRC 11758DEE Copy CRC 11758DEE Track not present in AccurateRip database Copy OK

Track 20

Filename E:\Soundtrack\Rachel Portman - Despite the Falling Snow (Original Motion Picture Score)\20 - Misha Confesses.wav

Peak level 25.7 % Extraction speed 4.3 X Track quality 100.0 % Test CRC B5838C62 Copy CRC B5838C62 Track not present in AccurateRip database Copy OK

Track 21

Filename E:\Soundtrack\Rachel Portman - Despite the Falling Snow (Original Motion Picture Score)\21 - Misha Explains.wav

Peak level 70.1 % Extraction speed 4.8 X Track quality 100.0 % Test CRC 74C67222 Copy CRC 74C67222 Track not present in AccurateRip database Copy OK

Track 22

Filename E:\Soundtrack\Rachel Portman - Despite the Falling Snow (Original Motion Picture Score)\22 - Katya's Letter.wav

Peak level 33.0 % Extraction speed 5.3 X Track quality 100.0 % Test CRC BB439281 Copy CRC BB439281 Track not present in AccurateRip database Copy OK

None of the tracks are present in the AccurateRip database

No errors occurred

End of status report

---- CUETools DB Plugin V2.1.4

[CTDB TOCID: _iZW8CjjGBS3UFwCd7kHO424J6I-] disk not present in databaseSubmit result: 请求被中止: 请求已被取消。

==== Log checksum EFF55244779C767745986B830276AF999A6D3E22951A9743CBEB39C02F378E7B ====
REM GENRE SoundtrackREM DATE 2016REM DISCID 3B0C2A16REM COMMENT "ExactAudioCopy v1.0b4"PERFORMER "Rachel Portman"TITLE "Despite the Falling Snow (Original Motion Picture Score)"FILE "01 - Despite the Falling Snow.wav" WAVE TRACK 01 AUDIO TITLE "Despite the Falling Snow" PERFORMER "Rachel Portman" INDEX 01 00:00:00FILE "02 - The Last Dinner.wav" WAVE TRACK 02 AUDIO TITLE "The Last Dinner" PERFORMER "Rachel Portman" INDEX 01 00:00:00FILE "03 - I Have Instructions.wav" WAVE TRACK 03 AUDIO TITLE "I Have Instructions" PERFORMER "Rachel Portman" INDEX 01 00:00:00FILE "04 - New York 1961.wav" WAVE TRACK 04 AUDIO TITLE "New York 1961" PERFORMER "Rachel Portman" INDEX 01 00:00:00FILE "05 - You Can Never Go Back.wav" WAVE TRACK 05 AUDIO TITLE "You Can Never Go Back" PERFORMER "Rachel Portman" INDEX 01 00:00:00FILE "06 - Misha In Action.wav" WAVE TRACK 06 AUDIO TITLE "Misha In Action" PERFORMER "Rachel Portman" INDEX 01 00:00:00FILE "07 - The Drop Goes Wrong.wav" WAVE TRACK 07 AUDIO TITLE "The Drop Goes Wrong" PERFORMER "Rachel Portman" INDEX 01 00:00:00FILE "08 - Katya Remembers.wav" WAVE TRACK 08 AUDIO TITLE "Katya Remembers" PERFORMER "Rachel Portman" INDEX 01 00:00:00FILE "09 - Misha Goes to State Archive.wav" WAVE TRACK 09 AUDIO TITLE "Misha Goes to State Archive" PERFORMER "Rachel Portman" INDEX 01 00:00:00FILE "10 - It's Time You Took Something.wav" WAVE TRACK 10 AUDIO TITLE "It's Time You Took Something" PERFORMER "Rachel Portman" INDEX 01 00:00:00FILE "11 - Katya Betrays Sasha.wav" WAVE TRACK 11 AUDIO TITLE "Katya Betrays Sasha" PERFORMER "Rachel Portman" INDEX 01 00:00:00FILE "12 - I Won't Ruin Him.wav" WAVE TRACK 12 AUDIO TITLE "I Won't Ruin Him" PERFORMER "Rachel Portman" INDEX 01 00:00:00FILE "13 - The Wedding.wav" WAVE TRACK 13 AUDIO TITLE "The Wedding" PERFORMER "Rachel Portman" INDEX 01 00:00:00FILE "14 - Misha Blackmails Katya.wav" WAVE TRACK 14 AUDIO TITLE "Misha Blackmails Katya" PERFORMER "Rachel Portman" INDEX 01 00:00:00FILE "15 - It's Treason, Katya.wav" WAVE TRACK 15 AUDIO TITLE "It's Treason, Katya" PERFORMER "Rachel Portman" INDEX 01 00:00:00FILE "16 - Dmitri Was My Father.wav" WAVE TRACK 16 AUDIO TITLE "Dmitri Was My Father" PERFORMER "Rachel Portman" INDEX 01 00:00:00FILE "17 - I Was Blackmailed.wav" WAVE TRACK 17 AUDIO TITLE "I Was Blackmailed" PERFORMER "Rachel Portman" INDEX 01 00:00:00FILE "18 - We're On Our Own.wav" WAVE TRACK 18 AUDIO TITLE "We're On Our Own" PERFORMER "Rachel Portman" INDEX 01 00:00:00FILE "19 - Farewell at the Safe House.wav" WAVE TRACK 19 AUDIO TITLE "Farewell at the Safe House" PERFORMER "Rachel Portman" INDEX 01 00:00:00FILE "20 - Misha Confesses.wav" WAVE TRACK 20 AUDIO TITLE "Misha Confesses" PERFORMER "Rachel Portman" INDEX 01 00:00:00FILE "21 - Misha Explains.wav" WAVE TRACK 21 AUDIO TITLE "Misha Explains" PERFORMER "Rachel Portman" INDEX 01 00:00:00FILE "22 - Katya's Letter.wav" WAVE TRACK 22 AUDIO TITLE "Katya's Letter" PERFORMER "Rachel Portman" INDEX 01 00:00:00


Трекер:  [ 21-Июл-2016 07:30 ]

  

Скачать .torrent

Размер .torrent файла 17 KB


Размер: 198 MB
Хэш (hash) релиза: 0f2aeb6b2e692854591d7cee2bdc3d15990267

Еще никто не оставлял запись к записи скачать торрент Несмотря на падающий снег Despite the Falling Snow . Будь первым!

!Обратная связь