Скачать через торрент Царство растений в 3Д Kingdom of Plants 3D Фильм бесплатно в хорошем качестве torrent

Скачивайте на UnionPeer.org фильмы через торрент без регистрации. Новинки кино в хорошем качестве через торрент. На UnionPeer.org можно скачать через торрент фильмы 2014 и 2015 годов. Самые новые фильмы.

Скачать торрент Царство растений в 3Д Kingdom of Plants 3D бесплатно через .torrent фильм мультфильм сериал

Если у вас наблюдаются проблемы со скриншотами, переходом по ссылками, скачиванием торрентов - проблемы в блокировщике рекламы AdBlock. #хорошегоДня!


Статистика раздачи
Размер:  28.5 GB   |    Зарегистрирован:  1 год 3 месяца   |    .torrent скачан:  40 раз   |   
Раздают:  1  
   
Загрузка...
 
Автор Сообщение

Galfimbul

avatar Galfimbul


Царство растений / Kingdom of Plants

Год выпуска: 2012
Страна: Великобритания
Студия: Atlantic Productions
Жанр: Документальный
Продолжительность: 3 х ~00:52:12
Перевод: Авторский (одноголосый закадровый)
Доп. инфо о переводе: Владимир Курдов
Режиссер: Мартин Вильямс
Ведущий: Дэвид Аттенборо

Описание: Дэвид Аттенборо исследует жизнь растений и их увлекательный мир, от самых причудливых до самых прекрасных его обитателей. Используя превосходно снятые кадры в качестве наглядного сопровождения своего неповторимого стиля повествования, сэр Дэвид прослеживает историю растений от появления их на суше до наших дней, где они играют жизненно важную роль в природе. Перейдя к их временной шкале, он показывает истинную природу растений, которые не менее агрессивные и подвижные, чем животные. Всё это происходит в одном уникальном месте, мире растений в миниатюре, где представлено около 90% всех известных видов – королевских ботанических садах в Кью. Это зрелищное путешествие по царству растений настолько широкомасштабное и захватывающее, что способно удивить даже самых равнодушных к ботанике людей.

Доп. информация: Рип от

Список серий:
1. Жизнь во влажном климате / Life in the Wet Zone (00:52:19)
2. Раскрывая секреты / Solving the Secrets (00:52:08)
3. Выживание / Survival (00:52:08)

Внимание: Данное видео не воспроизводится с usb телевизора!
Только через HDMI-шнур на телевизор (с компьютера или медиаплеера).

Сэмпл: http://sendfile.su/1244962

Тип релиза: 3D BDRip 1080p
Контейнер: MKV
Формат 3D: OverUnder / Вертикальная полноразмерная стереопара
Порядок ракурсов: левый ракурс первый
Видео кодек: x264
Аудио кодек: DTS

Видео: MPEG-4 AVC, 1920x2160 (16:9), 23 Mbps, 23.976 fps
Аудио 1: Rus, dts, 48 KHz, 5.1 ch, 1509 Kbps
Аудио 2: Eng, dts, 48 KHz, 5.1 ch, 1509 Kbps (отдельным файлом)
-
ОбщееУникальный идентификатор : 188762024603983009707894035465952255337 (0x8E023E599B7058E0B152FC06C87B5D69)Полное имя : D:\Хранилище\Видео\Царство растений\Tsarstvo.Rasteniy.2012.3D.OU.e1.Dts.Rus.mkvФормат : MatroskaВерсия формата : Version 4 / Version 2Размер файла : 8,94 ГбайтПродолжительность : 52 м.Общий поток : 24,5 Мбит/секДата кодирования : UTC 2016-06-23 09:01:17Программа кодирования : mkvmerge v9.2.0 ('Photograph') 64bitБиблиотека кодирования : libebml v1.3.3 + libmatroska v1.4.4Обложка : YesAttachments : cover.jpg

ВидеоИдентификатор : 1Формат : AVCФормат/Информация : Advanced Video CodecПрофиль формата : High@L5.1MultiView_Count : 2MultiView_Layout : Top-Bottom (left eye first)Параметр CABAC формата : ДаПараметр ReFrames формата : 5 кадровИдентификатор кодека : V_MPEG4/ISO/AVCПродолжительность : 52 м.Битрейт : 23,0 Мбит/секШирина : 1920 пикселейВысота : 2160 пикселейСоотношение сторон : 16:9Соотношение сторон в оригинале : 0,889Режим частоты кадров : ПостоянныйЧастота кадров : 23,976 (24000/1001) кадра/секЦветовое пространство : YUVСубдискретизация насыщенности : 4:2:0Битовая глубина : 8 битТип развёртки : ПрогрессивнаяБит/(Пиксели*Кадры) : 0.231Размер потока : 8,38 Гбайт (94%)Библиотека кодирования : x264 core 148 r2638 7599210Настройки программы : cabac=1 / ref=5 / deblock=1:-3:-3 / analyse=0x3:0x133 / me=esa / subme=10 / psy=1 / psy_rd=1.00:0.00 / mixed_ref=1 / me_range=32 / chroma_me=1 / trellis=2 / 8x8dct=1 / cqm=0 / deadzone=21,11 / fast_pskip=0 / chroma_qp_offset=-2 / threads=18 / lookahead_threads=1 / sliced_threads=0 / nr=0 / decimate=1 / interlaced=0 / bluray_compat=0 / constrained_intra=0 / bframes=2 / b_pyramid=2 / b_adapt=2 / b_bias=0 / direct=3 / weightb=1 / open_gop=0 / weightp=2 / keyint=240 / keyint_min=24 / scenecut=40 / intra_refresh=0 / rc_lookahead=240 / rc=2pass / mbtree=1 / bitrate=23000 / ratetol=10.0 / qcomp=0.70 / qpmin=0 / qpmax=51 / qpstep=4 / cplxblur=20.0 / qblur=0.5 / vbv_maxrate=300000 / vbv_bufsize=300000 / nal_hrd=none / filler=0 / ip_ratio=1.40 / aq=1:0.80Default : ДаForced : Нет

АудиоИдентификатор : 2Формат : DTSФормат/Информация : Digital Theater SystemsРежим : 16Параметр Endianness формата : BigИдентификатор кодека : A_DTSПродолжительность : 52 м.Вид битрейта : ПостоянныйБитрейт : 1509 Кбит/секКаналы : 6 каналовРасположение каналов : Front: L C R, Side: L R, LFEЧастота : 48,0 КГцЧастота кадров : 93,750 кадра/сек (512 spf)Битовая глубина : 16 битМетод сжатия : С потерямиРазмер потока : 565 Мбайт (6%)Язык : RussianDefault : ДаForced : Нет

ОбщееПолное имя : D:\Хранилище\Видео\Царство растений\Tsarstvo.Rasteniy.2012.3D.OU.e1.Eng.Dts.dtsФормат : DTSФормат/Информация : Digital Theater SystemsРазмер файла : 565 МбайтПродолжительность : 52 м.Режим общего битрейта : ПостоянныйОбщий поток : 1509 Кбит/сек

АудиоФормат : DTSФормат/Информация : Digital Theater SystemsРежим : 16Параметр Endianness формата : BigПродолжительность : 52 м.Вид битрейта : ПостоянныйБитрейт : 1509 Кбит/секКаналы : 6 каналовРасположение каналов : Front: L C R, Side: L R, LFEЧастота : 48,0 КГцЧастота кадров : 93,750 кадра/сек (512 spf)Битовая глубина : 16 битМетод сжатия : С потерямиРазмер потока : 565 Мбайт

ОбщееУникальный идентификатор : 171448146879064464576008142096780007701 (0x80FBB645871A00FAAC70C55F1D4C9915)Полное имя : D:\Хранилище\Видео\Царство растений\Tsarstvo.Rasteniy.2012.3D.OU.e2.Dts.Rus.mkvФормат : MatroskaВерсия формата : Version 4 / Version 2Размер файла : 8,96 ГбайтПродолжительность : 52 м.Общий поток : 24,6 Мбит/секДата кодирования : UTC 2016-06-23 09:31:22Программа кодирования : mkvmerge v9.2.0 ('Photograph') 64bitБиблиотека кодирования : libebml v1.3.3 + libmatroska v1.4.4Обложка : YesAttachments : cover.jpg

ВидеоИдентификатор : 1Формат : AVCФормат/Информация : Advanced Video CodecПрофиль формата : High@L5.1MultiView_Count : 2MultiView_Layout : Top-Bottom (left eye first)Параметр CABAC формата : ДаПараметр ReFrames формата : 5 кадровИдентификатор кодека : V_MPEG4/ISO/AVCПродолжительность : 52 м.Битрейт : 23,0 Мбит/секШирина : 1920 пикселейВысота : 2160 пикселейСоотношение сторон : 16:9Соотношение сторон в оригинале : 0,889Режим частоты кадров : ПостоянныйЧастота кадров : 23,976 (24000/1001) кадра/секЦветовое пространство : YUVСубдискретизация насыщенности : 4:2:0Битовая глубина : 8 битТип развёртки : ПрогрессивнаяБит/(Пиксели*Кадры) : 0.231Размер потока : 8,41 Гбайт (94%)Библиотека кодирования : x264 core 148 r2638 7599210Настройки программы : cabac=1 / ref=5 / deblock=1:-3:-3 / analyse=0x3:0x133 / me=esa / subme=10 / psy=1 / psy_rd=1.00:0.00 / mixed_ref=1 / me_range=32 / chroma_me=1 / trellis=2 / 8x8dct=1 / cqm=0 / deadzone=21,11 / fast_pskip=0 / chroma_qp_offset=-2 / threads=18 / lookahead_threads=1 / sliced_threads=0 / nr=0 / decimate=1 / interlaced=0 / bluray_compat=0 / constrained_intra=0 / bframes=2 / b_pyramid=2 / b_adapt=2 / b_bias=0 / direct=3 / weightb=1 / open_gop=0 / weightp=2 / keyint=240 / keyint_min=24 / scenecut=40 / intra_refresh=0 / rc_lookahead=240 / rc=2pass / mbtree=1 / bitrate=23000 / ratetol=10.0 / qcomp=0.70 / qpmin=0 / qpmax=51 / qpstep=4 / cplxblur=20.0 / qblur=0.5 / vbv_maxrate=300000 / vbv_bufsize=300000 / nal_hrd=none / filler=0 / ip_ratio=1.40 / aq=1:0.80Default : ДаForced : Нет

АудиоИдентификатор : 2Формат : DTSФормат/Информация : Digital Theater SystemsРежим : 16Параметр Endianness формата : BigИдентификатор кодека : A_DTSПродолжительность : 52 м.Вид битрейта : ПостоянныйБитрейт : 1509 Кбит/секКаналы : 6 каналовРасположение каналов : Front: L C R, Side: L R, LFEЧастота : 48,0 КГцЧастота кадров : 93,750 кадра/сек (512 spf)Битовая глубина : 16 битМетод сжатия : С потерямиРазмер потока : 563 Мбайт (6%)Язык : RussianDefault : ДаForced : Нет

ОбщееПолное имя : D:\Хранилище\Видео\Царство растений\Tsarstvo.Rasteniy.2012.3D.OU.e2.Eng.Dts.dtsФормат : DTSФормат/Информация : Digital Theater SystemsРазмер файла : 563 МбайтПродолжительность : 52 м.Режим общего битрейта : ПостоянныйОбщий поток : 1509 Кбит/сек

АудиоФормат : DTSФормат/Информация : Digital Theater SystemsРежим : 16Параметр Endianness формата : BigПродолжительность : 52 м.Вид битрейта : ПостоянныйБитрейт : 1509 Кбит/секКаналы : 6 каналовРасположение каналов : Front: L C R, Side: L R, LFEЧастота : 48,0 КГцЧастота кадров : 93,750 кадра/сек (512 spf)Битовая глубина : 16 битМетод сжатия : С потерямиРазмер потока : 563 Мбайт (100%)

ОбщееУникальный идентификатор : 194737541945510118318273743531626234888 (0x92811619EA15FAF88B9BA0D79C1C8408)Полное имя : D:\Хранилище\Видео\Царство растений\Tsarstvo.Rasteniy.2012.3D.OU.e3.Dts.Rus.mkvФормат : MatroskaВерсия формата : Version 4 / Version 2Размер файла : 8,95 ГбайтПродолжительность : 52 м.Общий поток : 24,6 Мбит/секДата кодирования : UTC 2016-06-23 09:49:59Программа кодирования : mkvmerge v9.2.0 ('Photograph') 64bitБиблиотека кодирования : libebml v1.3.3 + libmatroska v1.4.4Обложка : YesAttachments : cover.jpg

ВидеоИдентификатор : 1Формат : AVCФормат/Информация : Advanced Video CodecПрофиль формата : High@L5.1MultiView_Count : 2MultiView_Layout : Top-Bottom (left eye first)Параметр CABAC формата : ДаПараметр ReFrames формата : 5 кадровИдентификатор кодека : V_MPEG4/ISO/AVCПродолжительность : 52 м.Битрейт : 23,0 Мбит/секШирина : 1920 пикселейВысота : 2160 пикселейСоотношение сторон : 16:9Соотношение сторон в оригинале : 0,889Режим частоты кадров : ПостоянныйЧастота кадров : 23,976 (24000/1001) кадра/секЦветовое пространство : YUVСубдискретизация насыщенности : 4:2:0Битовая глубина : 8 битТип развёртки : ПрогрессивнаяБит/(Пиксели*Кадры) : 0.231Размер потока : 8,40 Гбайт (94%)Библиотека кодирования : x264 core 148 r2638 7599210Настройки программы : cabac=1 / ref=5 / deblock=1:-3:-3 / analyse=0x3:0x133 / me=esa / subme=10 / psy=1 / psy_rd=1.00:0.00 / mixed_ref=1 / me_range=32 / chroma_me=1 / trellis=2 / 8x8dct=1 / cqm=0 / deadzone=21,11 / fast_pskip=0 / chroma_qp_offset=-2 / threads=18 / lookahead_threads=1 / sliced_threads=0 / nr=0 / decimate=1 / interlaced=0 / bluray_compat=0 / constrained_intra=0 / bframes=2 / b_pyramid=2 / b_adapt=2 / b_bias=0 / direct=3 / weightb=1 / open_gop=0 / weightp=2 / keyint=240 / keyint_min=24 / scenecut=40 / intra_refresh=0 / rc_lookahead=240 / rc=2pass / mbtree=1 / bitrate=23000 / ratetol=10.0 / qcomp=0.70 / qpmin=0 / qpmax=51 / qpstep=4 / cplxblur=20.0 / qblur=0.5 / vbv_maxrate=300000 / vbv_bufsize=300000 / nal_hrd=none / filler=0 / ip_ratio=1.40 / aq=1:0.80Default : ДаForced : Нет

АудиоИдентификатор : 2Формат : DTSФормат/Информация : Digital Theater SystemsРежим : 16Параметр Endianness формата : BigИдентификатор кодека : A_DTSПродолжительность : 52 м.Вид битрейта : ПостоянныйБитрейт : 1509 Кбит/секКаналы : 6 каналовРасположение каналов : Front: L C R, Side: L R, LFEЧастота : 48,0 КГцЧастота кадров : 93,750 кадра/сек (512 spf)Битовая глубина : 16 битМетод сжатия : С потерямиРазмер потока : 563 Мбайт (6%)Язык : RussianDefault : ДаForced : Нет

ОбщееПолное имя : D:\Хранилище\Видео\Царство растений\Tsarstvo.Rasteniy.2012.3D.OU.e3.Eng.Dts.dtsФормат : DTSФормат/Информация : Digital Theater SystemsРазмер файла : 563 МбайтПродолжительность : 52 м.Режим общего битрейта : ПостоянныйОбщий поток : 1509 Кбит/сек

АудиоФормат : DTSФормат/Информация : Digital Theater SystemsРежим : 16Параметр Endianness формата : BigПродолжительность : 52 м.Вид битрейта : ПостоянныйБитрейт : 1509 Кбит/секКаналы : 6 каналовРасположение каналов : Front: L C R, Side: L R, LFEЧастота : 48,0 КГцЧастота кадров : 93,750 кадра/сек (512 spf)Битовая глубина : 16 битМетод сжатия : С потерямиРазмер потока : 563 Мбайт (100%)
- -

Трекер:  [ 20-Июл-2016 21:00 ]

  

Скачать .torrent

Размер .torrent файла 143 KB


Размер: 28.5 GB
Хэш (hash) релиза: 3653c0331ca95bf702169298876c163230fa25a0
Подписка на обновления:

Еще никто не оставлял запись к записи скачать торрент Царство растений в 3Д Kingdom of Plants 3D . Будь первым!

!Обратная связь