Скачать через торрент Бездомный Бог: Арагато Noragami Aragoto бесплатно Аниме Все серии на русском torrent

Если у вас наблюдаются проблемы со скриншотами, переходом по ссылками, скачиванием торрентов - проблемы в блокировщике рекламы AdBlock. #хорошегоДня!


Статистика раздачи
Размер:  15.67 GB   |    Зарегистрирован:  1 год 2 месяца   |    .torrent скачан:  3 раза   |   
Раздают:  1  
   
Загрузка...
 
Автор Сообщение

Galfimbul

avatar Galfimbul


Бездомный Бог: Арагато / Noragami Aragoto
<a href="viewtopic.php?t=5181088" class="postLink"> </a><a href="viewtopic.php?t=5179902" class="postLink"> </a><a href="viewtopic.php?t=5179894" class="postLink"> </a>
Страна: Япония
Год выпуска: 2015 г.
Жанр: Приключения, комедия, мистика, сенен
Тип: TV
Продолжительность: 13 эп ~ 24 мин.
Режиссер: Тамура Котаро
Студия: BONES
Описание: Во втором сезоне основной акцент делается на богине войны Бишамон. У неё много шинки, ведь она не способна отказаться от духов, подвергнутых нападению Акаяши. Бишамон стоит во главе большой группы шинки, что частенько создаёт проблемы, поскольку она не может за всем уследить должным образом, особенно, когда кто-то из них болен или испытывает боль. Она яро ненавидит Ято, их связывает тёмное прошлое. Как ужасные события, происшедшие сотни лет тому назад, перекликаясь со зловещими событиями будней, повлияют на Ято и Юкине?
World-art
Субтитры фансаб-альянса: Firegorn Team

Перевод: Misto_river
Редактирование: Лилия де-Франц
Оформление, караоке: Redgar-firegorn
Качество: BDRip
Тип релиза: Без хардсаба
Разбитие по главам: Да
Формат видео: MKV
Наличие линковки: Нет
Видео: H.264 | 1920x1080 | ~5000 kbps | 23.976 fps | 10 bit
Аудио Jap: FLAC | ~1400 Kbps | 48 Hz | 2 ch
Субтитры: Ass | Встроенные (Включены по умолчанию)
ТВ 1: <a href="viewtopic.php?t=4707621" class="postLink"> </a> <a href="viewtopic.php?t=4651932" class="postLink"> </a> <a href="viewtopic.php?t=4707611" class="postLink"> </a>
01: Имя, что даровано после смерти
02: Её воспоминания
03: Ложная Связь
04: Желание
05: Благословение и проклятье
06: То, что должно быть сделано
07: Как поклонятся богу
08: Бог Бедствий
09: Звук трескающейся судьбы...
10: Конкретное Желание
11: Возрождение
12: Твой голос, что зовёт меня
13: Весть от Бога Удачи
General
General
Unique ID : 182365971366963091918310314512769996416 (0x8932689410986FA29EC6E61334C5D680)
Complete name : D:\Раздачи\Noragami Aragoto [1080p]\Noragami Aragoto 10 (BDRip 1920x1080 x264 FLAC).mkv
Format : Matroska
Format version : Version 4 / Version 2
File size : 1.12 GiB
Duration : 24mn 9s
Overall bit rate mode : Variable
Overall bit rate : 6 624 Kbps
Encoded date : UTC 2016-07-17 11:30:53
Writing application : mkvmerge v8.8.0 ('Wind at my back') 64bit
Writing library : libebml v1.3.3 + libmatroska v1.4.4
Attachments : Arthur Gothic_0.ttf / BenguiatGothicCTT_0_0.ttf / BrokgauzEfron_0.ttf / DS Goose_0.ttf

Video
ID : 1
Format : AVC
Format/Info : Advanced Video Codec
Format profile : High 10@L5.1
Format settings, CABAC : Yes
Format settings, ReFrames : 16 frames
Codec ID : V_MPEG4/ISO/AVC
Duration : 24mn 9s
Bit rate : 5 158 Kbps
Width : 1 920 pixels
Height : 1 080 pixels
Display aspect ratio : 16:9
Frame rate mode : Constant
Frame rate : 23.976 (24000/1001) fps
Color space : YUV
Chroma subsampling : 4:2:0
Bit depth : 10 bits
Scan type : Progressive
Bits/(Pixel*Frame) : 0.104
Stream size : 892 MiB (78%)
Title : 10bit H.264 - 1080p
Writing library : x264 core 148 r2665kMod a01e339
Encoding settings : cabac=1 / ref=16 / deblock=1:1:1 / analyse=0x3:0x133 / me=umh / subme=11 / psy=1 / fade_compensate=0.00 / psy_rd=0.65:0.00 / mixed_ref=1 / me_range=24 / chroma_me=1 / trellis=2 / 8x8dct=1 / cqm=0 / deadzone=21,11 / fast_pskip=0 / chroma_qp_offset=-2 / threads=24 / lookahead_threads=6 / sliced_threads=0 / nr=0 / decimate=1 / interlaced=0 / bluray_compat=0 / constrained_intra=0 / fgo=0 / bframes=16 / b_pyramid=2 / b_adapt=2 / b_bias=0 / direct=3 / weightb=1 / open_gop=0 / weightp=2 / keyint=250 / keyint_min=23 / scenecut=40 / intra_refresh=0 / rc_lookahead=250 / rc=crf / mbtree=1 / crf=14.0000 / qcomp=0.85 / qpmin=0 / qpmax=81 / qpstep=4 / ip_ratio=1.40 / aq=3:0.80
Language : Japanese
Default : Yes
Forced : No
Color range : Limited
Color primaries : BT.709
Transfer characteristics : BT.709
Matrix coefficients : BT.709

Audio
ID : 2
Format : FLAC
Format/Info : Free Lossless Audio Codec
Codec ID : A_FLAC
Duration : 24mn 9s
Bit rate mode : Variable
Bit rate : 1 462 Kbps
Channel(s) : 2 channels
Channel positions : Front: L R
Sampling rate : 48.0 KHz
Frame rate : 11.719 fps (4096 spf)
Bit depth : 24 bits
Stream size : 253 MiB (22%)
Title : 2.0 FLAC
Writing library : libFLAC 1.3.1 (UTC 2014-11-25)
Language : Japanese
Default : Yes
Forced : No

Text
ID : 3
Format : ASS
Codec ID : S_TEXT/ASS
Codec ID/Info : Advanced Sub Station Alpha
Duration : 24mn 9s
Bit rate : 663 bps
Count of elements : 570
Compression mode : Lossless
Stream size : 117 KiB (0%)
Title : [Firegorn Team]
Language : Russian
Default : Yes
Forced : No

Menu
00:00:00.033 : en:Prologue
00:00:48.020 : en:Opening
00:02:17.950 : en:Part A
00:12:58.250 : en:Eyecatch
00:13:01.960 : en:Part B
00:22:24.940 : en:Ending
00:23:54.950 : en:Part C
<a href="viewtopic.php?t=5090976" class="postLink">...5090976</a>
<a href="viewtopic.php?t=5089884" class="postLink">...5089884</a>
• 720p HDTV - Здесь BD 1080p
<a href="tracker.php?rid=16325518" class="postLink"> </a>
Не забываем нажимать на кнопку "сказать спасибо" тем самым выражая свою благодарность!!!
Раздавать буду преимущественно с 7:00 до 00:00

Трекер:  [ 17-Июл-2016 09:00 ]

  

Скачать .torrent

Размер .torrent файла 40 KB


Размер: 15.67 GB
Хэш (hash) релиза: 85b5ee78d1430c889012c527d8b29ae496d79b4c
Подписка на обновления:

Торренты, похожие на Бездомный Бог: Арагато Noragami Aragoto скачать торрент

Форум Название Автор Размер S L Добавлен
Аниме | HD Rips ·· Бездомный Бог: Арагато / Noragami Aragoto [TV] [13 из 13] [Без хардсаба] [JAP+SUB] [2015 г. Приключения, комедия, мистика, сенен, BDRip] [720p] Galfimbul 71211889926.63 GB 0 0 1468771714

19:08

17-Июл-16

Аниме | HD Rips ·· Бездомный Бог: Арагато / Noragami Aragoto [TV] [3 из 13] [Без хардсаба] [JAP+SUB] [2015 г., Приключения, комедия, мистика, сенен, BDRip] [1080p] Galfimbul 38429241993.58 GB 0 0 1456694401

00:20

29-Фев-16

Аниме | HD Rips ·· Бездомный Бог: Арагато / Noragami Aragoto [TV] [3 из 13] [Без хардсаба] [JAP+SUB] [2015 г. Приключения, комедия, мистика, сенен, BDRip] [720p] Galfimbul 13289742971.24 GB 0 0 1456694385

00:19

29-Фев-16

Аниме | Rips ·· Бездомный Бог: Арагато (ТВ-2) / Noragami Aragoto [TV] [01-04 из 12] [Без хардсаба] [RUS(int)] [2015 г., Приключения, Сверхъестественное, Сёнен, HDTVRip] [720p] Galfimbul 11834467491.1 GB 0 0 1446748731

21:38

5-Ноя-15

Аниме | Rips ·· Бездомный Бог: Арагато (ТВ-2) / Noragami Aragoto [TV] [01 из 13] [Без хардсаба] [RUS(ext), JAP, SUB] [2015 г., Приключения, Сверхъестественное, Сёнен, HDTVRip] [720p] Galfimbul 446146379425 MB 0 0 1443909863

01:04

4-Окт-15

Еще никто не оставлял запись к записи скачать торрент Бездомный Бог: Арагато Noragami Aragoto . Будь первым!

!Обратная связь