Скачать через торрент Бездомный Бог: Арагато Noragami Aragoto бесплатно Аниме Все серии на русском torrent

Если у вас наблюдаются проблемы со скриншотами, переходом по ссылками, скачиванием торрентов - проблемы в блокировщике рекламы AdBlock. #хорошегоДня!


Статистика раздачи
Размер:  6.63 GB   |    Зарегистрирован:  1 год 4 месяца   |    .torrent скачан:  9 раз   |   
Раздают:  1  
   
Загрузка...
 
Автор Сообщение

Galfimbul

avatar Galfimbul


Бездомный Бог: Арагато / Noragami Aragoto<a href="viewtopic.php?t=5181088" class="postLink"> </a><a href="viewtopic.php?t=5179902" class="postLink"> </a><a href="viewtopic.php?t=5179894" class="postLink"> </a>
Страна: Япония
Год выпуска: 2015 г.
Жанр: Приключения, комедия, мистика, сенен
Тип: TV
Продолжительность: 13 эп ~ 24 мин.
Режиссер: Тамура Котаро
Студия: BONES
Описание: Во втором сезоне основной акцент делается на богине войны Бишамон. У неё много шинки, ведь она не способна отказаться от духов, подвергнутых нападению Акаяши. Бишамон стоит во главе большой группы шинки, что частенько создаёт проблемы, поскольку она не может за всем уследить должным образом, особенно, когда кто-то из них болен или испытывает боль. Она яро ненавидит Ято, их связывает тёмное прошлое. Как ужасные события, происшедшие сотни лет тому назад, перекликаясь со зловещими событиями будней, повлияют на Ято и Юкине?
World-art
Субтитры фансаб-альянса: Firegorn Team

Перевод: Misto_river
Редактирование: Лилия де-Франц
Оформление, караоке: Redgar-firegorn
Качество: BDRip
Тип релиза: Без хардсаба
Разбитие по главам: Да
Релиз/Автор рипа: Redgar-Firegorn
Видео: H.264 | 1280x720 | ~3000 kbps | 23.976 | 8 bit
Аудио Jap: ACC | 192 kbps | 48 Hz | 2 ch
Субтитры: Ass | Встроенные (Включены по умолчанию)
ТВ 1: <a href="viewtopic.php?t=4707621" class="postLink"> </a> <a href="viewtopic.php?t=4651932" class="postLink"> </a> <a href="viewtopic.php?t=4707611" class="postLink"> </a>
GeneralUnique ID : 253289785738075891981118584523311474841 (0xBE8DD69A91B6BFD291EA77B867EAE899)Complete name : D:\Раздачи\Noragami Aragoto [720p]\[Firegorn Team] Noragami Aragoto 02 (BDRip 1280x720 x264 ACC).mkvFormat : MatroskaFormat version : Version 4 / Version 2File size : 392 MiBDuration : 24mn 11sOverall bit rate : 2 268 KbpsEncoded date : UTC 2016-02-28 20:21:52Writing application : mkvmerge v8.8.0 ('Wind at my back') 64bitWriting library : libebml v1.3.3 + libmatroska v1.4.4 / Lavf57.26.100Attachments : Arthur Gothic_0.ttf / BenguiatGothicCTT_0_0.ttf / BrokgauzEfron_0.ttf / JakobCTT Regular_0.ttf

VideoID : 1Format : AVCFormat/Info : Advanced Video CodecFormat profile : Main@L4.1Format settings, CABAC : YesFormat settings, ReFrames : 2 framesCodec ID : V_MPEG4/ISO/AVCDuration : 24mn 11sBit rate : 2 067 KbpsNominal bit rate : 3 000 KbpsWidth : 1 280 pixelsHeight : 720 pixelsDisplay aspect ratio : 16:9Frame rate mode : ConstantFrame rate : 23.976 fpsColor space : YUVChroma subsampling : 4:2:0Bit depth : 8 bitsScan type : ProgressiveBits/(Pixel*Frame) : 0.094Stream size : 358 MiB (91%)Writing library : x264 core 148 r2665Encoding settings : cabac=1 / ref=2 / deblock=1:1:1 / analyse=0x1:0x131 / me=hex / subme=7 / psy=1 / psy_rd=0.40:0.00 / mixed_ref=0 / me_range=16 / chroma_me=1 / trellis=1 / 8x8dct=0 / cqm=0 / deadzone=21,11 / fast_pskip=1 / chroma_qp_offset=-2 / threads=12 / lookahead_threads=2 / sliced_threads=0 / nr=0 / decimate=1 / interlaced=0 / bluray_compat=0 / constrained_intra=0 / bframes=3 / b_pyramid=0 / b_adapt=1 / b_bias=0 / direct=3 / weightb=1 / open_gop=0 / weightp=2 / keyint=239 / keyint_min=23 / scenecut=40 / intra_refresh=0 / rc_lookahead=40 / rc=abr / mbtree=1 / bitrate=3000 / ratetol=1.0 / qcomp=0.60 / qpmin=10 / qpmax=69 / qpstep=4 / vbv_maxrate=3500 / vbv_bufsize=24000 / nal_hrd=none / filler=0 / ip_ratio=1.40 / aq=3:0.60Default : YesForced : No

AudioID : 2Format : AACFormat/Info : Advanced Audio CodecFormat profile : LCCodec ID : A_AACDuration : 24mn 11sBit rate : 196 KbpsChannel(s) : 2 channelsChannel positions : Front: L RSampling rate : 48.0 KHzFrame rate : 46.875 fps (1024 spf)Compression mode : LossyStream size : 33.9 MiB (9%)Writing library : Lavc57.25.101 aacLanguage : JapaneseDefault : YesForced : No

TextID : 3Format : ASSCodec ID : S_TEXT/ASSCodec ID/Info : Advanced Sub Station AlphaDuration : 24mn 9sBit rate : 709 bpsCount of elements : 611Compression mode : LosslessStream size : 125 KiB (0%)Title : [Firegorn Team]Language : RussianDefault : YesForced : No

Menu00:00:00.000 : :Intro00:00:47.047 : :OP00:02:17.012 : :Part A00:13:04.993 : :Part B00:22:24.969 : :ED00:23:54.975 : :Next
01: Имя, что даровано после смерти
02: Её воспоминания
03: Ложная Связь
04: Желание
05: Благословение и проклятье
06: То, что должно быть сделано
07: Как поклонятся богу
08: Бог Бедствий
09: Звук трескающейся судьбы...
10: Конкретное Желание
11: Возрождение
12: Твой голос, что зовёт меня
13: Весть от Бога Удачи
<a href="viewtopic.php?t=5090976" class="postLink">...5090976</a>
<a href="viewtopic.php?t=5089884" class="postLink">...5089884</a>
• HDTV - Здесь BDRip
<a href="viewtopic.php?t=5179894" class="postLink">...5179894</a>
• [1080p] здесь [720p]
<a href="tracker.php?rid=16325518" class="postLink"> </a>
Не забываем нажимать на кнопку "сказать спасибо" тем самым выражая свою благодарность!!!
Раздавать буду преимущественно с 7:00 до 00:00

Трекер:  [ 17-Июл-2016 09:00 ]

  

Скачать .torrent

Размер .torrent файла 18 KB


Размер: 6.63 GB
Хэш (hash) релиза: bed539bf8f7f64e733e05f04eadeadcdc49420b4
Подписка на обновления:

Торренты, похожие на Бездомный Бог: Арагато Noragami Aragoto скачать торрент

Форум Название Автор Размер S L Добавлен
Аниме | HD Rips ·· Бездомный Бог: Арагато / Noragami Aragoto [TV] [13 из 13] [Без хардсаба] [JAP+SUB] [2015 г., Приключения, комедия, мистика, сенен, BDRip] [1080p] Galfimbul 1682246182215.67 GB 0 0 1468771718

19:08

17-Июл-16

Аниме | HD Rips ·· Бездомный Бог: Арагато / Noragami Aragoto [TV] [3 из 13] [Без хардсаба] [JAP+SUB] [2015 г., Приключения, комедия, мистика, сенен, BDRip] [1080p] Galfimbul 38429241993.58 GB 0 0 1456694401

00:20

29-Фев-16

Аниме | HD Rips ·· Бездомный Бог: Арагато / Noragami Aragoto [TV] [3 из 13] [Без хардсаба] [JAP+SUB] [2015 г. Приключения, комедия, мистика, сенен, BDRip] [720p] Galfimbul 13289742971.24 GB 0 0 1456694385

00:19

29-Фев-16

Аниме | Rips ·· Бездомный Бог: Арагато (ТВ-2) / Noragami Aragoto [TV] [01-04 из 12] [Без хардсаба] [RUS(int)] [2015 г., Приключения, Сверхъестественное, Сёнен, HDTVRip] [720p] Galfimbul 11834467491.1 GB 0 0 1446748731

21:38

5-Ноя-15

Аниме | Rips ·· Бездомный Бог: Арагато (ТВ-2) / Noragami Aragoto [TV] [01 из 13] [Без хардсаба] [RUS(ext), JAP, SUB] [2015 г., Приключения, Сверхъестественное, Сёнен, HDTVRip] [720p] Galfimbul 446146379425 MB 0 0 1443909863

01:04

4-Окт-15

Еще никто не оставлял запись к записи скачать торрент Бездомный Бог: Арагато Noragami Aragoto . Будь первым!

!Обратная связь