Скачать через торрент Истории Коёми Koyomimonogatari бесплатно Аниме Все серии на русском torrent

Если у вас наблюдаются проблемы со скриншотами, переходом по ссылками, скачиванием торрентов - проблемы в блокировщике рекламы AdBlock. #хорошегоДня!


Статистика раздачи
Размер:  3.51 GB   |    Зарегистрирован:  1 год 2 месяца   |    .torrent скачан:  11 раз   |   
Раздают:  1  
   
Загрузка...
 
Автор Сообщение

Galfimbul

avatar Galfimbul


Истории Коёми / Koyomimonogatari

Страна: Япония
Год выпуска: 2016 г.
Жанр: приключения, мистика
Тип: ONA
Продолжительность: 12 эп, ~11-16 мин. серия
Режиссер: Симбо Акиюки
Студия: SHAFT

Описание: "Koyomimonogatari" - сборник, состоящий из 12 коротких рассказов, каждый из которых соответствует определённому месяцу года. Расположены они в хронологическом порядке, начиная с нового триместра (после того, как Коёми столкнулся с прекрасным вампиром на весенних каникулах) и заканчивая экзаменами в университете.

Качество: BDRip (gt35)
Тип релиза: Без хардсаба
Формат видео: MKV
Видео: AVC (10 bit), 1280x720, 2234 kbps, 23.976 fps
Аудио: AAC, 241 kbps, 48.0 kHz, 2 ch Язык Японский
Субтитры: ASS, внешние, полные | надписи «Sovetromantica» ver.1 Язык субтитров русский ; Перевод: Ефим Троллев, WMM, Ararararagi | Редактура: Ефим Троллев
Субтитры 2: ASS, внешние, полные | надписи «Sovetromantica» ver.2 Язык субтитров русский ; Перевод: Ararararagi | Редактура: Sempre_Libera
от
<a href="viewtopic.php?t=5251713" class="postLink">...5251713</a>
-лучшее качество, меньший размер (сравнение скриншотов)
<a href="viewtopic.php?t=5251712" class="postLink">...5251712</a>
-720p
<a href="viewtopic.php?t=5251738" class="postLink">...5251738</a>
-BDRip
GeneralUnique ID : 200378837492005571677476075845793503480 (0x96BF8F7218E4C1A89F5823C019FE58F8)Complete name : Monogatari series\Koyomimonogatari [BD] [720p]\Koyomimonogatari [01] [BDRip, 720p, AAC].mkvFormat : MatroskaFormat version : Version 4 / Version 2File size : 246 MiBDuration : 13mn 44sOverall bit rate : 2 505 KbpsEncoded date : UTC 2016-07-17 09:11:59Writing application : mkvmerge v9.3.1 ('Mask Machine') 64bitWriting library : libebml v1.3.4 + libmatroska v1.4.5Attachments : 3940_1.ttf / 8381.otf / a_Romanus.ttf / ANT_TCB.TTF / cambriab_3.ttf / CAMBRIAZ_3.TTF / comic_1.ttf / Fowviel.ttf / Lora-Regular.ttf / OwnHand.ttf / Vollkorn-Bold.otf

VideoID : 1Format : AVCFormat/Info : Advanced Video CodecFormat profile : High 10@L5Format settings, CABAC : YesFormat settings, ReFrames : 11 framesCodec ID : V_MPEG4/ISO/AVCDuration : 13mn 44sBit rate : 2 234 KbpsWidth : 1 280 pixelsHeight : 720 pixelsDisplay aspect ratio : 16:9Frame rate mode : ConstantFrame rate : 23.976 (24000/1001) fpsColor space : YUVChroma subsampling : 4:2:0Bit depth : 10 bitsScan type : ProgressiveBits/(Pixel*Frame) : 0.101Stream size : 220 MiB (89%)Writing library : x264 core 148 r2638 7599210Encoding settings : cabac=1 / ref=11 / deblock=1:-2:-2 / analyse=0x3:0x133 / me=umh / subme=9 / psy=1 / psy_rd=0.65:0.00 / mixed_ref=1 / me_range=24 / chroma_me=1 / trellis=2 / 8x8dct=1 / cqm=0 / deadzone=21,11 / fast_pskip=0 / chroma_qp_offset=-4 / threads=12 / lookahead_threads=2 / sliced_threads=0 / nr=0 / decimate=1 / interlaced=0 / bluray_compat=0 / constrained_intra=0 / bframes=8 / b_pyramid=2 / b_adapt=2 / b_bias=0 / direct=3 / weightb=1 / open_gop=0 / weightp=2 / keyint=250 / keyint_min=23 / scenecut=40 / intra_refresh=0 / rc_lookahead=40 / rc=crf / mbtree=1 / crf=15.0 / qcomp=0.70 / qpmin=0 / qpmax=40 / qpstep=4 / vbv_maxrate=168750 / vbv_bufsize=168750 / crf_max=0.0 / nal_hrd=none / filler=0 / ip_ratio=1.40 / aq=1:1.00Language : JapaneseDefault : YesForced : No

AudioID : 2Format : AACFormat/Info : Advanced Audio CodecFormat profile : LCCodec ID : A_AACDuration : 13mn 44sBit rate : 241 KbpsChannel(s) : 2 channelsChannel positions : Front: L RSampling rate : 48.0 KHzFrame rate : 46.875 fps (1024 spf)Compression mode : LossyStream size : 23.7 MiB (10%)Language : JapaneseDefault : YesForced : No
01. Камень Коёми
02. Цветок Коёми
03. Песок Коёми
04. Вода Койми
05. Ветер Коёми
06. Дерево Коёми
07. Чай Коёми
08. Гора Коёми
09. Тор Коёми
10. Семена Коёми
11. Ничто Коёми
12. Смерть Коёми


Трекер:  [ 17-Июл-2016 09:00 ]

  

Скачать .torrent

Размер .torrent файла 21 KB


Размер: 3.51 GB
Хэш (hash) релиза: 515467807e6bf43a79dc7c84fd58d269705cc78b
Подписка на обновления:

Торренты, похожие на Истории Коёми Koyomimonogatari скачать торрент

Форум Название Автор Размер S L Добавлен
Аниме | HD Rips ·· Истории Коёми / Koyomimonogatari / Хроника Коёми [ONA] [12 из 12] [Без хардсаба] [JAP+SUB] [2016, приключения, мистика, BDRip] [1080p] Galfimbul 87537519868.15 GB 0 0 1500917499

20:31

24-Июл-17

Аниме | HD Rips ·· Истории Коёми / Koyomimonogatari / Хроника Коёми [ONA] [12 из 12] [Без хардсаба] [JAP+SUB] [2016 г., приключения, мистика, BDRemux] [1080p] Galfimbul 3817127982435.55 GB 0 0 1468515776

20:02

14-Июл-16

Аниме | HD Rips ·· Истории Коёми / Koyomimonogatari / Хроника Коёми [ONA] [12 из 12] [Без хардсаба] [JAP+SUB] [2016 г., приключения, мистика, BDRip] [720p] Galfimbul 57118805335.32 GB 2 0 1468513543

19:25

14-Июл-16

Аниме | HD Rips ·· Истории Коёми / Koyomimonogatari / Хроника Коёми [ONA] [12 из 12] [Без хардсаба] [JAP+SUB] [2016 г., приключения, мистика, BDRip] [1080p] Galfimbul 103228999729.61 GB 0 0 1468513536

19:25

14-Июл-16

Аниме | HD Rips ·· Истории Коёми / Koyomimonogatari / Хроника Коёми [ONA] [01 из 12] [Без хардсаба] [JAP+SUB] [2016 г., приключения, мистика, BDRip] [1080p] Galfimbul 616960519588 MB 0 0 1467835588

23:06

6-Июл-16

Аниме | HD Rips ·· Истории Коёми / Koyomimonogatari / Хроника Коёми [ONA] [01 из 12] [Без хардсаба] [JAP+SUB] [2016 г., приключения, мистика, BDRemux] [1080p] Galfimbul 33322115413.1 GB 0 0 1467804495

14:28

6-Июл-16

Аниме | HD Rips ·· Истории Коёми / Koyomimonogatari / Хроника Коёми [ONA] [01 из 12] [Без хардсаба] [JAP+SUB] [2016 г., приключения, мистика, BDRip] [1080p] Galfimbul 854385252815 MB 0 0 1467795336

11:55

6-Июл-16

Аниме | HD Rips ·· Истории Коёми / Koyomimonogatari / Хроника Коёми [ONA] [01 из 12] [Без хардсаба] [JAP+SUB] [2016 г., приключения, мистика, BDRip] [720p] Galfimbul 212536878203 MB 0 0 1467795316

11:55

6-Июл-16

Аниме | Rips ·· Истории Коёми / Koyomimonogatari / Хроника Коёми (Симбо Акиюки) [ONA] [01 из 12] [Без хардсаба] [JAP+SUB] [2016 г., приключения, мистика, WEBRip] Galfimbul 7424205271 MB 0 0 1453224778

20:32

19-Янв-16

Еще никто не оставлял запись к записи скачать торрент Истории Коёми Koyomimonogatari . Будь первым!

!Обратная связь