Скачать через торрент Боруто: Фильм Наруто Boruto: Naruto the Movie бесплатно Аниме Все серии на русском torrent

Если у вас наблюдаются проблемы со скриншотами, переходом по ссылками, скачиванием торрентов - проблемы в блокировщике рекламы AdBlock. #хорошегоДня!


Статистика раздачи
Размер:  3.18 GB   |    Зарегистрирован:  1 год 2 месяца   |    .torrent скачан:  71 раз   |   
Раздают:  1  
   
Загрузка...
 
Автор Сообщение

Galfimbul

avatar Galfimbul


Боруто: Фильм Наруто / Boruto: Naruto the Movie


Страна: Япония
Год выпуска: 2015 г.
Жанр: приключения, комедия, боевые искусства, сёнэн
Тип: Movie
Продолжительность: 01:35:19
Режиссер: Ямасита Хироюки
Студия:

Описание: Боруто Узумаки — сын Наруто Узумаки, героя Скрытого листа и 7 Хокагэ. Главный герой сея истории весьма одарен, но ненавидит работу Наруто и поэтому считает его неважным отцом. Боруто считает своего отца героем, и в его сердце возникает желание превзойти героический путь отца, и лучшей идеей для этого становится намерение стать учеником человека, который знал его отца с ранних лет и являлся одновременно соперником и лучшим другом. Но что думает об этом сам Саскэ Учиха? В то время, как команда Боруто обзаведется своим сэнсэем, Боруто будет называть учителем Саскэ. Итак, наступает новая эпоха для жизни нового поколения шиноби.
Субтитры фансаб-Альянса: Firegorn Team

Перевод, оформление: Redgar-firegorn
Редактирование: 8Bochan8
Сверка с японским: Nucha
Спонсор перевода: Павел Тыщенко
Качество: BDRip
Тип релиза: Без хардсаба
Формат видео: MKV
Наличие линковки: Нет
Автор рипа: [SOFCJ-Raws]
Видео: H.264 | 1280x688 | 2 757 Kbps | 23.976 fps | 10 bit
Аудио Jap: FLAC | 595 Kbps | 48 Hz | 2 ch (Включена по умолчанию)
Аудио Jap: FLAC | 1 419 Kbps | 48 Hz | 6 ch
Субтитры: Ass | Встроенные | Цветная версия (Включены по умолчанию)
Субтитры: Ass | Встроенные | Чёрно-белая версия. (В составе контейнера)
GeneralUnique ID : 245319586869321509882416530025174692659 (0xB88ED575DBDD0D21BD0653EF207A7333)Complete name : D:\Раздачи\Boruto [720p]\Boruto - Naruto the Movie (BDRip 1280x688 x264 10bit FLACx2).mkvFormat : MatroskaFormat version : Version 4 / Version 2File size : 3.18 GiBDuration : 1h 35mnOverall bit rate mode : VariableOverall bit rate : 4 774 KbpsMovie name : [SOFCJ-Raws] Boruto - Naruto the Movie (BDRip 1280x688 x264 10bit FLACx2)Encoded date : UTC 2016-07-14 10:47:25Writing application : mkvmerge v8.8.0 ('Wind at my back') 64bitWriting library : libebml v1.3.3 + libmatroska v1.4.4Attachments : Comic_Sans_0_0.ttf / PresentScript_0.ttf / Comic_Sans_0_0.ttf / PresentScript_0.ttf / Comic_Sans_0_0.ttf / PresentScript_0.ttf

VideoID : 1Format : AVCFormat/Info : Advanced Video CodecFormat profile : High 10@L4.1Format settings, CABAC : YesFormat settings, ReFrames : 4 framesCodec ID : V_MPEG4/ISO/AVCDuration : 1h 35mnBit rate : 2 757 KbpsWidth : 1 280 pixelsHeight : 688 pixelsDisplay aspect ratio : 1.85:1Frame rate mode : ConstantFrame rate : 23.976 (24000/1001) fpsColor space : YUVChroma subsampling : 4:2:0Bit depth : 10 bitsScan type : ProgressiveBits/(Pixel*Frame) : 0.131Stream size : 1.84 GiB (58%)Writing library : x264 core 148 r2705+54 9f484c1 t_mod_Custom [10-bit@all X86_64]Encoding settings : cabac=1 / ref=4 / deblock=1:-2:-2 / analyse=0x3:0x133 / me=umh / subme=10 / psy=1 / fade_compensate=0.00 / psy_rd=0.70:0.00 / mixed_ref=1 / me_range=24 / chroma_me=1 / trellis=2 / 8x8dct=1 / cqm=0 / deadzone=21,11 / fast_pskip=1 / chroma_qp_offset=-2 / threads=12 / lookahead_threads=2 / sliced_threads=0 / nr=0 / decimate=0 / interlaced=0 / bluray_compat=0 / constrained_intra=0 / fgo=0 / bframes=8 / b_pyramid=2 / b_adapt=2 / b_bias=0 / direct=3 / weightb=1 / open_gop=0 / weightp=2 / keyint=250 / keyint_min=23 / scenecut=40 / intra_refresh=0 / rc=crf / mbtree=0 / crf=17.0000 / qcomp=0.60 / qpmin=10:10:10 / qpmax=38:38:38 / qpstep=4 / ip_ratio=1.40 / pb_ratio=1.30 / aq=1:1.00 / aq-sensitivity=10.00 / aq-factor=1.00:1.00:1.00 / aq2=0 / aq3=0Language : JapaneseDefault : YesForced : NoColor range : LimitedColor primaries : BT.709Transfer characteristics : BT.709Matrix coefficients : BT.709

Audio #1ID : 2Format : FLACFormat/Info : Free Lossless Audio CodecCodec ID : A_FLACDuration : 1h 35mnBit rate mode : VariableBit rate : 595 KbpsChannel(s) : 2 channelsChannel positions : Front: L RSampling rate : 48.0 KHzFrame rate : 11.719 fps (4096 spf)Bit depth : 16 bitsStream size : 405 MiB (12%)Title : 2.0Writing library : libFLAC 1.3.1 (UTC 2014-11-25)Language : JapaneseDefault : YesForced : No

Audio #2ID : 4Format : FLACFormat/Info : Free Lossless Audio CodecCodec ID : A_FLACDuration : 1h 35mnBit rate mode : VariableBit rate : 1 419 KbpsChannel(s) : 6 channelsChannel positions : Front: L C R, Back: L R, LFESampling rate : 48.0 KHzFrame rate : 11.719 fps (4096 spf)Bit depth : 16 bitsStream size : 968 MiB (30%)Title : 5.1Writing library : libFLAC 1.3.1 (UTC 2014-11-25)Language : JapaneseDefault : NoForced : No

Text #1ID : 3Format : ASSCodec ID : S_TEXT/ASSCodec ID/Info : Advanced Sub Station AlphaDuration : 1h 34mnBit rate : 113 bpsCount of elements : 1023Compression mode : LosslessStream size : 78.3 KiB (0%)Title : [Firegorn Team] Color VersionLanguage : RussianDefault : YesForced : No

Text #2ID : 5Format : ASSCodec ID : S_TEXT/ASSCodec ID/Info : Advanced Sub Station AlphaDuration : 1h 34mnBit rate : 123 bpsCount of elements : 1022Compression mode : LosslessStream size : 85.2 KiB (0%)Title : [Firegorn Team] Default VersionLanguage : RussianDefault : NoForced : No
<a href="viewtopic.php?t=5253110" class="postLink">...5253110</a>
DVDRip [480p] Здесь BDrip [720p]
<a href="tracker.php?rid=16325518" class="postLink"> </a>
Не забываем нажимать на кнопку "сказать спасибо" тем самым выражая свою благодарность!!!
Раздавать буду преимущественно с 7:00 до 00:00

Трекер:  [ 14-Июл-2016 13:00 ]

  

Скачать .torrent

Размер .torrent файла 16 KB


Размер: 3.18 GB
Хэш (hash) релиза: eace6ef7a4a76be5052349f3c4938b60b6002972
Подписка на обновления:

Еще никто не оставлял запись к записи скачать торрент Боруто: Фильм Наруто Boruto: Naruto the Movie . Будь первым!

!Обратная связь