Скачать через торрент музыку Михаил Муромов - Афганистан - 1994, FLAC бесплатно без регистрации torrent

Если у вас наблюдаются проблемы со скриншотами, переходом по ссылками, скачиванием торрентов - проблемы в блокировщике рекламы AdBlock. #хорошегоДня!


Статистика раздачи
Размер:  385 MB   |    Зарегистрирован:  6 лет 6 месяцев   |    .torrent скачан:  139 раз   |   
Раздают:  1  
   
Загрузка...
 
Автор Сообщение

L


Михаил Муромов / Афганистан

Жанр: Pop
Страна-производитель диска: Россия
Год издания диска: 1994
Издатель (лейбл): J.S.P.
Номер по каталогу: 010 042-1
Аудио кодек: FLAC (*.flac)
Тип рипа: image+.cue
Битрейт аудио: lossless
Продолжительность: 57:40
Источник (релизер): MiniMax1
Наличие сканов в содержимом раздачи: да
Треклист:
01. Казачья [0:04:28.73]
02. Поздняя Весна [0:04:00.62]
03. Тамаша [0:04:23.13]
04. Зона Риска [0:02:39.60]
05. Капитаны [0:03:49.25]
06. Боевым Награждается Орденом [0:03:52.45]
07. Афганистан [0:04:04.50]
08. Спроси Пустыню [0:04:09.52]
09. Письмо Брату [0:03:01.40]
10. Мама Моя [0:03:25.70]
11. Ласточки [0:04:39.60]
12. Земля Вернется В Май [0:04:09.58]
13. Наш Дом [0:03:06.35]
14. Ориноко [0:04:52.70]
15. Помни Про Хорошее [0:02:54.07]
 
Exact Audio Copy V0.99 prebeta 5 from 4. May 2009

Отчёт EAC об извлечении, выполненном 16. мая 2011, 3:14

Михаил Муромов / Афганистан

Дисковод: PIONEER DVD-RW DVR-109 Adapter: 0 ID: 1

Режим чтения : ДостоверностьИспользование точного потока : ДаОтключение кэша аудио : ДаИспользование указателей C2 : Нет

Коррекция смещения при чтении : 48Способность читать области Lead-in и Lead-out : НетЗаполнение пропущенных сэмплов тишиной : ДаУдаление блоков с тишиной в начале и конце : НетПри вычислениях CRC использовались нулевые сэмплы : ДаИнтерфейс : Установленный внешний ASPI-интерфейс

Выходной формат : Внутренние WAV-операцииФормат сэмплов : 44.100 Гц; 16 бит; стерео

TOC извлечённого CD

Трек | Старт | Длительность | Начальный сектор | Конечный сектор --------------------------------------------------------------------- 1 | 0:00.32 | 4:28.73 | 32 | 20204 2 | 4:29.30 | 4:00.62 | 20205 | 38266 3 | 8:30.17 | 4:23.13 | 38267 | 58004 4 | 12:53.30 | 2:39.60 | 58005 | 69989 5 | 15:33.15 | 3:49.25 | 69990 | 87189 6 | 19:22.40 | 3:52.45 | 87190 | 104634 7 | 23:15.10 | 4:04.50 | 104635 | 122984 8 | 27:19.60 | 4:09.52 | 122985 | 141711 9 | 31:29.37 | 3:01.40 | 141712 | 155326 10 | 34:31.02 | 3:25.70 | 155327 | 170771 11 | 37:56.72 | 4:39.60 | 170772 | 191756 12 | 42:36.57 | 4:09.58 | 191757 | 210489 13 | 46:46.40 | 3:06.35 | 210490 | 224474 14 | 49:53.00 | 4:52.70 | 224475 | 246444 15 | 54:45.70 | 2:54.07 | 246445 | 259501

Характеристики диапазона извлечения и сообщения об ошибках

Выбранный диапазон

Имя файла D:\Torrents Downloads\Михаил Муромов - 1994 Афганистан\Михаил Муромов - Афганистан.wav

Пиковый уровень 93.1 % Качество диапазона 100.0 % CRC теста BD257EDF CRC копии BD257EDF Копирование... OK

Ошибок не произошло

AccurateRip: сводка

Трек 1 нет в базе данныхТрек 2 нет в базе данныхТрек 3 нет в базе данныхТрек 4 нет в базе данныхТрек 5 нет в базе данныхТрек 6 нет в базе данныхТрек 7 нет в базе данныхТрек 8 нет в базе данныхТрек 9 нет в базе данныхТрек 10 нет в базе данныхТрек 11 нет в базе данныхТрек 12 нет в базе данныхТрек 13 нет в базе данныхТрек 14 нет в базе данныхТрек 15 нет в базе данных

Ни одного трека нет в базе AccurateRip

Конец отчёта
 
REM GENRE PopREM DATE 1994REM DISCID E90D840FREM COMMENT "ExactAudioCopy v0.99pb5"PERFORMER "Михаил Муромов"TITLE "Афганистан"FILE "Михаил Муромов - Афганистан.wav" WAVE TRACK 01 AUDIO TITLE "Казачья" PERFORMER "Михаил Муромов" INDEX 00 00:00:00 INDEX 01 00:00:32 TRACK 02 AUDIO TITLE "Поздняя Весна" PERFORMER "Михаил Муромов" INDEX 00 04:24:60 INDEX 01 04:29:30 TRACK 03 AUDIO TITLE "Тамаша" PERFORMER "Михаил Муромов" INDEX 00 08:26:07 INDEX 01 08:30:17 TRACK 04 AUDIO TITLE "Зона Риска" PERFORMER "Михаил Муромов" INDEX 00 12:48:32 INDEX 01 12:53:30 TRACK 05 AUDIO TITLE "Капитаны" PERFORMER "Михаил Муромов" INDEX 00 15:29:07 INDEX 01 15:33:15 TRACK 06 AUDIO TITLE "Боевым Награждается Орденом" PERFORMER "Михаил Муромов" INDEX 00 19:18:72 INDEX 01 19:22:40 TRACK 07 AUDIO TITLE "Афганистан" PERFORMER "Михаил Муромов" INDEX 00 23:11:07 INDEX 01 23:15:10 TRACK 08 AUDIO TITLE "Спроси Пустыню" PERFORMER "Михаил Муромов" INDEX 00 27:14:67 INDEX 01 27:19:60 TRACK 09 AUDIO TITLE "Письмо Брату" PERFORMER "Михаил Муромов" INDEX 00 31:24:70 INDEX 01 31:29:37 TRACK 10 AUDIO TITLE "Мама Моя" PERFORMER "Михаил Муромов" INDEX 00 34:26:67 INDEX 01 34:31:02 TRACK 11 AUDIO TITLE "Ласточки" PERFORMER "Михаил Муромов" INDEX 00 37:53:02 INDEX 01 37:56:72 TRACK 12 AUDIO TITLE "Земля Вернется В Май" PERFORMER "Михаил Муромов" INDEX 00 42:33:02 INDEX 01 42:36:57 TRACK 13 AUDIO TITLE "Наш Дом" PERFORMER "Михаил Муромов" INDEX 00 46:42:25 INDEX 01 46:46:40 TRACK 14 AUDIO TITLE "Ориноко" PERFORMER "Михаил Муромов" INDEX 00 49:48:72 INDEX 01 49:53:00 TRACK 15 AUDIO TITLE "Помни Про Хорошее" PERFORMER "Михаил Муромов" INDEX 00 54:41:10 INDEX 01 54:45:70
Доп. информация:

Цитата:

Эксклюзив из личной коллекции. Даже freedb не знает этот диск. Возможно диск произведен в Германии, но явно на нём нигде информации об этом нет.


Трекер:  [ 16-Май-2011 06:56 ]

  

Скачать .torrent

Размер .torrent файла 16 KB


Размер: 385 MB
Хэш (hash) релиза: 683a2da3db86a5387337ca0b6179a47e6a773a7c

Еще никто не оставлял запись к записи скачать торрент Михаил Муромов - Афганистан - 1994, FLAC . Будь первым!

!Обратная связь