Скачать через торрент Нозоми и Кимио Nozo x Kimi бесплатно Аниме Все серии на русском torrent

Если у вас наблюдаются проблемы со скриншотами, переходом по ссылками, скачиванием торрентов - проблемы в блокировщике рекламы AdBlock. #хорошегоДня!


Статистика раздачи
Размер:  956 MB   |    Зарегистрирован:  1 год 2 месяца   |    .torrent скачан:  22 раза   |   
Раздают:  1  
   
Загрузка...
 
Автор Сообщение

Galfimbul

avatar Galfimbul


Нозоми и Кимио / Nozo x Kimi

Страна: Япония
Год выпуска: 2014 г.
Жанр: комедия, этти
Тип: OVA
Продолжительность: 3 эп. по 25 мин.
Режиссер: Джимбо Масато
Студия: Zexcs

Описание: Кимио Суга — шестнадцатилетний парень, ученик средней школы. Коминэ Нозоми — скромная одноклассница Кимио, которую всегда называли «пустым местом».
Однажды Суга по чистой случайности оказывается в неприятной ситуации, а именно запертым в женской раздевалке без возможности выйти и сбежать, так как уже начали прибывать девушки. У него не было скрытых мотивов, но он все же запаниковал и спрятался в шкафчике. Однако Нозоми обнаруживает его и на удивление спокойно реагирует, предлагая даже помощь. Озадаченный, но довольный Кимио убегает домой с мыслями о том, что будет дальше, ведь дом Нозоми находится через дорогу от дома Кимио.
Вечером того же дня Кимио получает сообщение от Нозоми с текстом «открой занавески». Открыв занавески, он видит раздевающуюся перед ним Нозоми. После чего та начинает шантажировать его, поставив условия: она не рассказывает никому о том, что видела его в женской раздевалке, а он каждый раз, увидев сообщение от Нозоми, открывает свои занавески и показывает «себя». Вот так и начинается новая жизнь Кимио... без права на отказ!

Качество: HDTVRip
Тип релиза: Без хардсаба
Формат видео: MP4
Наличие линковки: Нет
Релиз/Автор рипа: Ohys-Raws
Видео: H264, 1280x720, 8bits, 1731kbps, 23.976fps
Аудио: AAC, 2ch, 192kbps, 48kHz Язык Японский
Субтитры: ass, отдельным файлом Язык субтитров русский ;
#1 Перевод: LookerA
#2 Перевод: NoName ; Редактор: Cylowatt ; Оформление: Nikrofill (AniBread)
#3 Перевод: Gerale
Format : MPEG-4Format profile : Base MediaCodec ID : isomFile size : 331 MiBDuration : 24mn 0sOverall bit rate mode : VariableOverall bit rate : 1 929 Kbps

VideoID : 1Format : AVCFormat/Info : Advanced Video CodecFormat profile : Main@L4.1Format settings, CABAC : YesFormat settings, ReFrames : 4 framesCodec ID : avc1Codec ID/Info : Advanced Video CodingDuration : 23mn 59sBit rate : 1 731 KbpsMaximum bit rate : 9 035 KbpsWidth : 1 280 pixelsHeight : 720 pixelsDisplay aspect ratio : 16:9Frame rate mode : ConstantFrame rate : 23.976 fpsColor space : YUVChroma subsampling : 4:2:0Bit depth : 8 bitsScan type : ProgressiveBits/(Pixel*Frame) : 0.078Stream size : 297 MiB (90%)Writing library : x264 core 148 r2638 7599210Encoding settings : cabac=1 / ref=3 / deblock=1:0:0 / analyse=0x1:0x111 / me=hex / subme=7 / psy=1 / psy_rd=1.00:0.00 / mixed_ref=1 / me_range=16 / chroma_me=1 / trellis=1 / 8x8dct=0 / cqm=0 / deadzone=21,11 / fast_pskip=1 / chroma_qp_offset=-2 / threads=12 / lookahead_threads=2 / sliced_threads=0 / nr=0 / decimate=1 / interlaced=0 / bluray_compat=0 / constrained_intra=0 / bframes=3 / b_pyramid=2 / b_adapt=1 / b_bias=0 / direct=1 / weightb=1 / open_gop=0 / weightp=2 / keyint=240 / keyint_min=1 / scenecut=40 / intra_refresh=0 / rc_lookahead=40 / rc=crf / mbtree=1 / crf=20.0 / qcomp=0.60 / qpmin=0 / qpmax=69 / qpstep=4 / ip_ratio=1.40 / aq=1:1.50

AudioID : 2Format : AACFormat/Info : Advanced Audio CodecFormat profile : LCCodec ID : 40Duration : 24mn 0sBit rate mode : VariableBit rate : 192 KbpsMaximum bit rate : 247 KbpsChannel count : 2 channelsChannel positions : Front: L RSampling rate : 48.0 KHzCompression mode : LossyStream size : 33.4 MiB (10%)Language : Japanese
1. Грудастая девушка
2. Призрак клубной комнаты
3. Наше сердцебиение


Трекер:  [ 10-Июл-2016 20:00 ]

  

Скачать .torrent

Размер .torrent файла 20 KB


Размер: 956 MB
Хэш (hash) релиза: 3ace0f18daf5e521dbfae12c09638a10588427f3
Подписка на обновления:

Еще никто не оставлял запись к записи скачать торрент Нозоми и Кимио Nozo x Kimi . Будь первым!

!Обратная связь