Скачать через торрент Ну не могу я бесплатно Аниме Все серии на русском torrent

Если у вас наблюдаются проблемы со скриншотами, переходом по ссылками, скачиванием торрентов - проблемы в блокировщике рекламы AdBlock. #хорошегоДня!


Статистика раздачи
Размер:  54.9 GB   |    Зарегистрирован:  1 год 2 месяца   |    .torrent скачан:  28 раз   |   
Раздают:  1  
   
Загрузка...
 
Автор Сообщение

Galfimbul

avatar Galfimbul


Ну не могу я (не)влюбиться в своего братишку!! / Onii-chan no Koto Nanka Zenzen Suki Janain Dakara ne!!

Год выпуска: 2011
Страна: Япония
Жанр: комедия, этти
Тип: TV
Продолжительность: 13 эп. по 24 мин.
Озвучка:
<ol class="post-ul">
Одноголосая (муж) от ITLM (эп. 1-12)
Одноголосая (муж) от Flame
Двухголосая (муж/жен) от OniChan & Viki
</ol>

Русские субтитры: есть (отдельным файлом, формат .ass)
Перевод:
<ol class="post-ul">
Hige-san, Inhesion, Ryuji, Amarillis, Yuliii [Dreamers Team]
Advokat, Nati [Advantage]
</ol>
Хардсаб: Нет
Режиссер: Мотонага Кэйтаро
Студия: Zexcs

Описание: 14-летняя Нао Таканаси ничего не может поделать с тайной страстью к своему старшему на год брату Сюсукэ. Юная прелестница пускает в ход все приемы из арсенала игр про «младших сестренок», но объект желания не то чтобы туп или патологически скромен – просто Сюсукэ слишком глубоко завяз в уже упомянутых играх, интересных журналах и веселых картинках, чтобы резко переключиться на реальный мир. Пока что ненавязчивое внимание родителей и незримое табу инцеста держат ребят вдали от опасной грани. Но вот Нао, обследуя комнату брата, находит старый альбом и узнает семейную тайну. Ее любовь больше не запретна! Но что это меняет в отношении нормального в целом парня к младшей сестре?

Ничего, не бывает крепостей, которые не пали бы под планомерной осадой, нужны лишь время и настойчивость. Вот только соперницы стали появляться как из ниоткуда – и где раньше-то были? Теперь влюбленной сестре приходится бороться на два фронта – а старший брат все так же предпочитает печатные издания!

© Hollow, World Art

Качество: Blu-Ray Remux
Формат: MKV
Видео кодек: AVC
Аудио кодек: FLAC
Видео: 1920x1080 (16:9) 23,976 fps ~15,3 Mbps 8bit
Аудио:
Jap FLAC, 48000Hz, ~1392 kbps 2ch
RUS 1 (ext) AAC, 48000Hz, ~164 Kbps, 2ch
RUS 2 (ext) AC3, 48000Hz, ~192 Kbps, 2ch
RUS 3 (ext) MP3, 48000Hz, ~320 Kbps, 2ch (эп. 1-12), AAC, 48000Hz, ~256 Kbps, 2ch (эп. 13)

Чаптеры присутствуют.
01. Безумный день братика и сестрички
02. Два хвостика атакуют братика и сестрёнку
03. Появление конкурентки. Братик и сестричка в беде
04. Если моя маленькая сестричка наденет свой купальник
05. Мистер Х атакует братика!
06. Братик мечтает о чёрных колготках
07. Братик и его друзья в Акибе
08. Цель — Братик
09. Это лето! Это фестиваль! Созревание братика и сестрички
10. Мой братик спасает мир
11. Вызов братику из центра мира
12. Я совсем не люблю моего братика!
13. От сестрички с любовью Хроника сексуальных интересов братика
Общее
Уникальный идентификатор : 218522986726299781168219749813304357522 (0xA465FF11ED99C9EAB1A6345BFC36F292)
Полное имя : M:\incoming\[UP]\Oni_V2\[anti-raws]Onii-chan no Koto Nanka Zenzen Suki ja Naindakara ne!! ep.01[BDRemux].mkv
Формат : Matroska
Версия формата : Version 4 / Version 2
Размер файла : 2,83 Гбайт
Продолжительность : 24 м.
Режим общего битрейта : Переменный
Общий поток : 16,8 Мбит/сек
Дата кодирования : UTC 2016-07-09 17:39:45
Программа кодирования : mkvmerge v9.2.0 ('Photograph') 64bit
Библиотека кодирования : libebml v1.3.3 + libmatroska v1.4.4

Видео
Идентификатор : 2
Формат : AVC
Формат/Информация : Advanced Video Codec
Профиль формата : High@L4.1
Параметр CABAC формата : Да
Параметр ReFrames формата : 2 кадра
Параметр GOP формата : M=3, N=12
Идентификатор кодека : V_MPEG4/ISO/AVC
Продолжительность : 23 м.
Вид битрейта : Переменный
Битрейт : 15,7 Мбит/сек
Максимальный битрейт : 38,0 Мбит/сек
Ширина : 1920 пикселей
Высота : 1080 пикселей
Соотношение сторон : 16:9
Режим частоты кадров : Постоянный
Частота кадров : 23,976 (24000/1001) кадра/сек
Цветовое пространство : YUV
Субдискретизация насыщенности : 4:2:0
Битовая глубина : 8 бит
Тип развёртки : Прогрессивная
Бит/(Пиксели*Кадры) : 0.316
Размер потока : 2,59 Гбайт (92%)
Default : Нет
Forced : Нет
Цветовой диапазон : Limited
Основные цвета : BT.709
Характеристики трансфера : BT.709
Коэффициенты матрицы : BT.709

Аудио
Идентификатор : 1
Формат : FLAC
Формат/Информация : Free Lossless Audio Codec
Идентификатор кодека : A_FLAC
Продолжительность : 24 м.
Вид битрейта : Переменный
Битрейт : 1392 Кбит/сек
Каналы : 2 канала
Расположение каналов : Front: L R
Частота : 48,0 КГц
Частота кадров : 11,719 кадров/сек (4096 spf)
Битовая глубина : 24 бит
Размер потока : 241 Мбайт (8%)
Библиотека кодирования : libFLAC 1.2.1 (UTC 2007-09-17)
Язык : Japanese
Default : Да
Forced : Нет

Меню
00:00:00.000 : en:00:00:00.000
00:01:57.034 : en:00:01:57.034
00:03:26.998 : en:00:03:26.998
00:10:07.982 : en:00:10:07.982
00:21:18.986 : en:00:21:18.986
00:22:48.993 : en:00:22:48.993
<a href="viewtopic.php?t=3717024" class="postLink">...3717024</a>
--BDRip

Эта раздача - BDRemux


Трекер:  [ 10-Июл-2016 01:00 ]

  

Скачать .torrent

Размер .torrent файла 80 KB


Размер: 54.9 GB
Хэш (hash) релиза: 3b72f538d7a56cc67eb185a568b9e860b92a296b
Подписка на обновления:

Еще никто не оставлял запись к записи скачать торрент Ну не могу я . Будь первым!

!Обратная связь