Скачать через торрент музыку Охотники за привидениями Ghostbusters бесплатно без регистрации torrent

Если у вас наблюдаются проблемы со скриншотами, переходом по ссылками, скачиванием торрентов - проблемы в блокировщике рекламы AdBlock. #хорошегоДня!


Статистика раздачи
Размер:  227 MB   |    Зарегистрирован:  1 год 5 месяцев   |    .torrent скачан:  6 раз   |   
Раздают:  1  
   
Загрузка...
 
Автор Сообщение

Galfimbul

avatar Galfimbul


Охотники за привидениями ● Ghostbusters
ЖанрGenre: Score
КомпозиторComposer: Theodore Shapiro
Год выпуска дискаCD release: 2016
Год выпуска фильмаMovie release: 2016
Производитель дискаCD manufacturer: EU
Издатель (лейбл)Label: Sony Classical
Номер по каталогуCatalog #: 88985329852
АудиокодекCodec: FLAC (*.flac)
Тип рипаRip type: tracks+.cue
Битрейт аудиоBit rate: lossless
ПродолжительностьDuration: 00:51:41
ИсточникSource: собственный рип ● own rip - Release # FX-339
Наличие сканов в раздачeScans included: нет (будут позже) ● no (will be added later)
СсылкиLinks: Кинопоиск | IMDB | <a href="https://en.wikipedia.org/wiki/Ghostbusters_(2016_film)" class="postLink">Wikipedia</a> | SoundtrackCollector
MP3: <a href="viewtopic.php?t=5252672" class="postLink">(Score) Охотники за привидениями / Ghostbusters (Theodore Shapiro) - 2016, MP3, 320 kbps</a>
Theodore Shapiro: <a href="tracker.php?f=786&nm=Theodore+Shapiro" class="postLink">lossless</a> | <a href="tracker.php?f=785&nm=Theodore+Shapiro" class="postLink">lossy</a>
01. The Aldridge Mansion [0:02:57.05]
02. The Garrett Attack [0:01:29.58]
03. Never Invited [0:01:23.63]
04. Distinct Human Form [0:02:26.55]
05. The Universe Shall Bend [0:02:22.66]
06. Subway Ghost Attack [0:03:21.49]
07. Ghost Girl [0:00:59.62]
08. Mannequins [0:02:12.44]
09. Ghost In a Box [0:00:50.39]
10. Dr. Heiss [0:03:21.58]
11. Ley Lines [0:03:47.27]
12. Pester The Living [0:02:48.25]
13. I Will Lead Them All [0:02:16.67]
14. The Power of Patty Compels You [0:02:16.44]
15. The Fourth Cataclysm [0:03:32.14]
16. Balloon Parade [0:01:58.12]
17. Battle of Times Square [0:03:20.53]
18. Entering The Mercado [0:02:31.10]
19. Behemoth [0:03:43.06]
20. Into The Portal [0:03:07.43]
21. NY Heart GB [0:00:49.66]
Exact Audio Copy V1.1 from 23. June 2015

EAC extraction logfile from 9. July 2016, 11:57

Theodore Shapiro / Ghostbusters

Used drive : PLEXTOR CD-R PX-230A Adapter: 1 ID: 0

Read mode : SecureUtilize accurate stream : YesDefeat audio cache : YesMake use of C2 pointers : No

Read offset correction : 738Overread into Lead-In and Lead-Out : NoFill up missing offset samples with silence : YesDelete leading and trailing silent blocks : NoNull samples used in CRC calculations : YesUsed interface : Native Win32 interface for Win NT & 2000Gap handling : Appended to previous track

Used output format : User Defined EncoderSelected bitrate : 1024 kBit/sQuality : HighAdd ID3 tag : NoCommand line compressor : C:\Program Files\Exact Audio Copy\Flac\flac.exeAdditional command line options : -6 -V -T "ARTIST=%artist%" -T "TITLE=%title%" -T "ALBUM=%albumtitle%" -T "DATE=%year%"-T "TRACKNUMBER=%tracknr%" -T "GENRE=%genre%" -T "COMMENT=%comment%" -T "ALBUMARTIST=%albuminterpret%" -T "COMPOSER=%composer%"-T "DISCNUMBER=%cdnumber%" -T "TOTALDISCS=%totalcds%" -T "TOTALTRACKS=%numtracks%" %source% -o %dest%

TOC of the extracted CD

Track | Start | Length | Start sector | End sector --------------------------------------------------------- 1 | 0:00.00 | 2:57.05 | 0 | 13279 2 | 2:57.05 | 1:29.58 | 13280 | 20012 3 | 4:26.63 | 1:23.63 | 20013 | 26300 4 | 5:50.51 | 2:26.55 | 26301 | 37305 5 | 8:17.31 | 2:22.66 | 37306 | 48021 6 | 10:40.22 | 3:21.49 | 48022 | 63145 7 | 14:01.71 | 0:59.62 | 63146 | 67632 8 | 15:01.58 | 2:12.44 | 67633 | 77576 9 | 17:14.27 | 0:50.39 | 77577 | 81365 10 | 18:04.66 | 3:21.58 | 81366 | 96498 11 | 21:26.49 | 3:47.27 | 96499 | 113550 12 | 25:14.01 | 2:48.25 | 113551 | 126175 13 | 28:02.26 | 2:16.67 | 126176 | 136442 14 | 30:19.18 | 2:16.44 | 136443 | 146686 15 | 32:35.62 | 3:32.14 | 146687 | 162600 16 | 36:08.01 | 1:58.12 | 162601 | 171462 17 | 38:06.13 | 3:20.53 | 171463 | 186515 18 | 41:26.66 | 2:31.10 | 186516 | 197850 19 | 43:58.01 | 3:43.06 | 197851 | 214581 20 | 47:41.07 | 3:07.43 | 214582 | 228649 21 | 50:48.50 | 0:49.66 | 228650 | 232390

Track 1

Filename C:\Music\01 - The Aldridge Mansion.wav

Pre-gap length 0:00:02.00

Peak level 11.9 % Extraction speed 3.2 X Track quality 100.0 % Test CRC 32964AC1 Copy CRC 32964AC1 Track not present in AccurateRip database Copy OK

Track 2

Filename C:\Music\02 - The Garrett Attack.wav

Peak level 97.7 % Extraction speed 4.1 X Track quality 100.0 % Test CRC 11CBAAA7 Copy CRC 11CBAAA7 Track not present in AccurateRip database Copy OK

Track 3

Filename C:\Music\03 - Never Invited.wav

Peak level 67.3 % Extraction speed 3.9 X Track quality 100.0 % Test CRC 7398D7F3 Copy CRC 7398D7F3 Track not present in AccurateRip database Copy OK

Track 4

Filename C:\Music\04 - Distinct Human Form.wav

Peak level 97.7 % Extraction speed 3.5 X Track quality 99.9 % Test CRC F877813C Copy CRC F877813C Track not present in AccurateRip database Copy OK

Track 5

Filename C:\Music\05 - The Universe Shall Bend.wav

Peak level 97.7 % Extraction speed 5.1 X Track quality 100.0 % Test CRC E55000E8 Copy CRC E55000E8 Track not present in AccurateRip database Copy OK

Track 6

Filename C:\Music\06 - Subway Ghost Attack.wav

Peak level 97.7 % Extraction speed 4.2 X Track quality 100.0 % Test CRC 0411EAE8 Copy CRC 0411EAE8 Track not present in AccurateRip database Copy OK

Track 7

Filename C:\Music\07 - Ghost Girl.wav

Peak level 6.5 % Extraction speed 2.9 X Track quality 100.0 % Test CRC 272EAE3D Copy CRC 272EAE3D Track not present in AccurateRip database Copy OK

Track 8

Filename C:\Music\08 - Mannequins.wav

Peak level 97.7 % Extraction speed 4.1 X Track quality 100.0 % Test CRC C9EA2D2A Copy CRC C9EA2D2A Track not present in AccurateRip database Copy OK

Track 9

Filename C:\Music\09 - Ghost In a Box.wav

Peak level 97.7 % Extraction speed 3.2 X Track quality 100.0 % Test CRC B53C6215 Copy CRC B53C6215 Track not present in AccurateRip database Copy OK

Track 10

Filename C:\Music\10 - Dr. Heiss.wav

Peak level 97.7 % Extraction speed 4.3 X Track quality 100.0 % Test CRC 18662DBC Copy CRC 18662DBC Track not present in AccurateRip database Copy OK

Track 11

Filename C:\Music\11 - Ley Lines.wav

Peak level 97.7 % Extraction speed 4.5 X Track quality 100.0 % Test CRC C8394BA0 Copy CRC C8394BA0 Track not present in AccurateRip database Copy OK

Track 12

Filename C:\Music\12 - Pester The Living.wav

Peak level 97.7 % Extraction speed 3.5 X Track quality 99.9 % Test CRC 89767A8A Copy CRC 89767A8A Track not present in AccurateRip database Copy OK

Track 13

Filename C:\Music\13 - I Will Lead Them All.wav

Peak level 97.7 % Extraction speed 5.0 X Track quality 100.0 % Test CRC 7641DE29 Copy CRC 7641DE29 Track not present in AccurateRip database Copy OK

Track 14

Filename C:\Music\14 - The Power of Patty Compels You.wav

Peak level 97.7 % Extraction speed 4.0 X Track quality 100.0 % Test CRC 6B53B34D Copy CRC 6B53B34D Track not present in AccurateRip database Copy OK

Track 15

Filename C:\Music\15 - The Fourth Cataclysm.wav

Peak level 97.7 % Extraction speed 4.0 X Track quality 100.0 % Test CRC 8D91EBD5 Copy CRC 8D91EBD5 Track not present in AccurateRip database Copy OK

Track 16

Filename C:\Music\16 - Balloon Parade.wav

Peak level 97.7 % Extraction speed 3.9 X Track quality 99.9 % Test CRC B113B2FC Copy CRC B113B2FC Track not present in AccurateRip database Copy OK

Track 17

Filename C:\Music\17 - Battle of Times Square.wav

Peak level 97.7 % Extraction speed 4.4 X Track quality 100.0 % Test CRC DDD39545 Copy CRC DDD39545 Track not present in AccurateRip database Copy OK

Track 18

Filename C:\Music\18 - Entering The Mercado.wav

Peak level 97.7 % Extraction speed 4.1 X Track quality 100.0 % Test CRC B2A60BE2 Copy CRC B2A60BE2 Track not present in AccurateRip database Copy OK

Track 19

Filename C:\Music\19 - Behemoth.wav

Peak level 97.7 % Extraction speed 3.7 X Track quality 99.9 % Test CRC EB6681AA Copy CRC EB6681AA Track not present in AccurateRip database Copy OK

Track 20

Filename C:\Music\20 - Into The Portal.wav

Peak level 97.7 % Extraction speed 4.0 X Track quality 99.9 % Test CRC 8557B599 Copy CRC 8557B599 Track not present in AccurateRip database Copy OK

Track 21

Filename C:\Music\21 - NY Heart GB.wav

Peak level 97.7 % Extraction speed 2.7 X Track quality 100.0 % Test CRC 4F56BF9C Copy CRC 4F56BF9C Track not present in AccurateRip database Copy OK

None of the tracks are present in the AccurateRip database

No errors occurred

End of status report

---- CUETools DB Plugin V2.1.6

[CTDB TOCID: Jfbl8Z385S1.wp_4X3eNdOv4LAQ-] disk not present in databaseSubmit result: Jfbl8Z385S1.wp_4X3eNdOv4LAQ- has been uploaded

==== Log checksum 79F05CF8AFBAABEAA28E57B222A921C0D7043E6855DEA59A81CB9059B050AEC5 ====
REM GENRE SoundtrackREM DATE 2016REM DISCID 340C1A15REM COMMENT "ExactAudioCopy v1.1 - Release # FX-339"PERFORMER "Theodore Shapiro"TITLE "Ghostbusters"FILE "01 - The Aldridge Mansion.wav" WAVE TRACK 01 AUDIO TITLE "The Aldridge Mansion" PERFORMER "Theodore Shapiro" INDEX 01 00:00:00FILE "02 - The Garrett Attack.wav" WAVE TRACK 02 AUDIO TITLE "The Garrett Attack" PERFORMER "Theodore Shapiro" INDEX 01 00:00:00FILE "03 - Never Invited.wav" WAVE TRACK 03 AUDIO TITLE "Never Invited" PERFORMER "Theodore Shapiro" INDEX 01 00:00:00FILE "04 - Distinct Human Form.wav" WAVE TRACK 04 AUDIO TITLE "Distinct Human Form" PERFORMER "Theodore Shapiro" INDEX 01 00:00:00FILE "05 - The Universe Shall Bend.wav" WAVE TRACK 05 AUDIO TITLE "The Universe Shall Bend" PERFORMER "Theodore Shapiro" INDEX 01 00:00:00FILE "06 - Subway Ghost Attack.wav" WAVE TRACK 06 AUDIO TITLE "Subway Ghost Attack" PERFORMER "Theodore Shapiro" INDEX 01 00:00:00FILE "07 - Ghost Girl.wav" WAVE TRACK 07 AUDIO TITLE "Ghost Girl" PERFORMER "Theodore Shapiro" INDEX 01 00:00:00FILE "08 - Mannequins.wav" WAVE TRACK 08 AUDIO TITLE "Mannequins" PERFORMER "Theodore Shapiro" INDEX 01 00:00:00FILE "09 - Ghost In a Box.wav" WAVE TRACK 09 AUDIO TITLE "Ghost In a Box" PERFORMER "Theodore Shapiro" INDEX 01 00:00:00FILE "10 - Dr. Heiss.wav" WAVE TRACK 10 AUDIO TITLE "Dr. Heiss" PERFORMER "Theodore Shapiro" INDEX 01 00:00:00FILE "11 - Ley Lines.wav" WAVE TRACK 11 AUDIO TITLE "Ley Lines" PERFORMER "Theodore Shapiro" INDEX 01 00:00:00FILE "12 - Pester The Living.wav" WAVE TRACK 12 AUDIO TITLE "Pester The Living" PERFORMER "Theodore Shapiro" INDEX 01 00:00:00FILE "13 - I Will Lead Them All.wav" WAVE TRACK 13 AUDIO TITLE "I Will Lead Them All" PERFORMER "Theodore Shapiro" INDEX 01 00:00:00FILE "14 - The Power of Patty Compels You.wav" WAVE TRACK 14 AUDIO TITLE "The Power of Patty Compels You" PERFORMER "Theodore Shapiro" INDEX 01 00:00:00FILE "15 - The Fourth Cataclysm.wav" WAVE TRACK 15 AUDIO TITLE "The Fourth Cataclysm" PERFORMER "Theodore Shapiro" INDEX 01 00:00:00FILE "16 - Balloon Parade.wav" WAVE TRACK 16 AUDIO TITLE "Balloon Parade" PERFORMER "Theodore Shapiro" INDEX 01 00:00:00FILE "17 - Battle of Times Square.wav" WAVE TRACK 17 AUDIO TITLE "Battle of Times Square" PERFORMER "Theodore Shapiro" INDEX 01 00:00:00FILE "18 - Entering The Mercado.wav" WAVE TRACK 18 AUDIO TITLE "Entering The Mercado" PERFORMER "Theodore Shapiro" INDEX 01 00:00:00FILE "19 - Behemoth.wav" WAVE TRACK 19 AUDIO TITLE "Behemoth" PERFORMER "Theodore Shapiro" INDEX 01 00:00:00FILE "20 - Into The Portal.wav" WAVE TRACK 20 AUDIO TITLE "Into The Portal" PERFORMER "Theodore Shapiro" INDEX 01 00:00:00FILE "21 - NY Heart GB.wav" WAVE TRACK 21 AUDIO TITLE "NY Heart GB" PERFORMER "Theodore Shapiro" INDEX 01 00:00:00


Трекер:  [ 09-Июл-2016 12:30 ]

  

Скачать .torrent

Размер .torrent файла 10 KB


Размер: 227 MB
Хэш (hash) релиза: 6fd92f8ff96e8fc9846275fa5e062f8a8bdfdafd

Торренты, похожие на Охотники за привидениями Ghostbusters скачать торрент

Форум Название Автор Размер S L Добавлен
Саундтреки к фильмам и мультфильмам (lossless) ·· (Soundtrack) Охотники за привидениями / Ghostbusters (Ghostbusters (Original Motion Picture Soundtrack)) - 2016, FLAC (tracks), lossless Galfimbul 365751177349 MB 0 0 1475367173

03:12

2-Окт-16

Саундтреки к фильмам и мультфильмам (mp3) ·· (Soundtrack) Охотники за привидениями / Ghostbusters (Various Artists) - 2016, MP3, 320 kbps Galfimbul 112421002107 MB 0 0 1469637722

19:42

27-Июл-16

Саундтреки к фильмам и мультфильмам (lossless) ·· (Score) Охотники за привидениями / Ghostbusters (by Theodore Shapiro) - 2016, FLAC (tracks+.cue), lossless Galfimbul 267469363255 MB 0 0 1469126031

21:33

21-Июл-16

Саундтреки к фильмам и мультфильмам (mp3) ·· (Score) Охотники за привидениями / Ghostbusters (Theodore Shapiro) - 2016, MP3, 320 kbps Galfimbul 126393367121 MB 0 0 1467995860

19:37

8-Июл-16

Саундтреки к фильмам и мультфильмам (mp3) ·· (Score / Soundtrack) Охотники за Привидениями / Ghostbusters (by Elmer Bernstein & VA), 1984-2006, MP3, 320 kbps Galfimbul 661087811630 MB 0 0 1365584351

11:59

10-Апр-13

Саундтреки к фильмам и мультфильмам (lossless) ·· (Soundtrack) [LP] [16/44] Охотники за привидениями / Ghostbusters - 1984, FLAC (tracks+.cue), lossless AqvaGen 243381967232 MB 0 0 1292270474

23:01

13-Дек-10

Саундтреки к фильмам и мультфильмам (lossless) ·· (Soundtrack) Охотники за привидениями / Ghostbusters - 1984, FLAC (tracks+.cue), lossless Mo4ilovo 233559270223 MB 0 0 1292268629

22:30

13-Дек-10

Саундтреки к фильмам и мультфильмам (lossless) ·· (Score) Ghostbusters / Охотники за привидениями (Elmer Bernstein) - 1984, FLAC (image+.cue), lossless Galfimbul 379841793362 MB 0 0 1292268946

22:35

13-Дек-10

Саундтреки к фильмам и мультфильмам (mp3) ·· (Score) Экстремальные охотники за привидениями / Extreme Ghostbusters (Jim Latham) - 1997, MP3 (tracks), 256 kbps AqvaGen 8451008081 MB 0 0 1292268105

22:21

13-Дек-10

Саундтреки к фильмам и мультфильмам (mp3) ·· (OST) Ghostbusters / Охотники за Привидениями - Полное Собрание, MP3, 320 kbps Galfimbul 670626387640 MB 0 0 1292265726

21:42

13-Дек-10

Еще никто не оставлял запись к записи скачать торрент Охотники за привидениями Ghostbusters . Будь первым!

!Обратная связь