Скачать через торрент Детективное агентство «Хаматора» SD Мини-хама: Минимум Хаматора бесплатно Аниме Все серии на русском torrent

Если у вас наблюдаются проблемы со скриншотами, переходом по ссылками, скачиванием торрентов - проблемы в блокировщике рекламы AdBlock. #хорошегоДня!


Статистика раздачи
Размер:  262 MB   |    Зарегистрирован:  1 год 2 месяца   |    .torrent скачан:  10 раз   |   
Раздают:  1  
   
Загрузка...
 
Автор Сообщение

Galfimbul

avatar Galfimbul


Детективное агентство «Хаматора» SD / Mini Hama: Minimum-Hamatora

Страна: Япония
Год выпуска: 2015 г.
Жанр: комедия
Тип: TV
Продолжительность: 9 эп. по 5 мин.
Режиссер: Андо Масаоми
Студия: Lerche

Описание: Мини-серии, которые выходят в дополнение к фильму-компиляции сериала. В SD сериях Мурасаки станет учителем, а Арт и Найс станут студентами.

Качество: HDTVRip
Тип релиза: Без хардсаба
Формат видео: MP4
Наличие линковки: Нет
Релиз/Автор рипа: Leopard-Raws
Видео: H264, 1280x720, 8bits, 1641kbps, 23.976fps
Аудио: AAC, 2ch, 192kbps, 48kHz Язык Японский
Субтитры: ass, отдельным файлом Язык субтитров русский ; Перевод: Nika_Elrik ; Редактор/Оформление: Helge (YakuSub Studio)
Format : MPEG-4Format profile : Base MediaCodec ID : isomFile size : 65.9 MiBDuration : 5mn 0sOverall bit rate mode : VariableOverall bit rate : 1 837 Kbps

VideoID : 1Format : AVCFormat/Info : Advanced Video CodecFormat profile : High@L4.1Format settings, CABAC : YesFormat settings, ReFrames : 4 framesCodec ID : avc1Codec ID/Info : Advanced Video CodingDuration : 5mn 0sBit rate : 1 641 KbpsMaximum bit rate : 6 309 KbpsWidth : 1 280 pixelsHeight : 720 pixelsDisplay aspect ratio : 16:9Frame rate mode : ConstantFrame rate : 23.976 fpsColor space : YUVChroma subsampling : 4:2:0Bit depth : 8 bitsScan type : ProgressiveBits/(Pixel*Frame) : 0.074Stream size : 58.9 MiB (89%)Title : 264:fps=23.976@GPAC0.5.1-DEV-rev4929Writing library : x264 core 129 r2245+729M 1a52e03Encoding settings : cabac=1 / ref=4 / deblock=1:1:-1 / analyse=0x3:0x113 / me=umh / subme=9 / psy=1 / fade_compensate=0.00 / psy_rd=1.00:0.00 / mixed_ref=1 / me_range=24 / chroma_me=1 / trellis=2 / 8x8dct=1 / cqm=0 / deadzone=21,11 / fast_pskip=1 / chroma_qp_offset=-2 / threads=8 / lookahead_threads=1 / sliced_threads=0 / nr=0 / decimate=1 / interlaced=0 / bluray_compat=0 / constrained_intra=0 / fgo=0 / bframes=9 / b_pyramid=2 / b_adapt=2 / b_bias=0 / direct=1 / weightb=1 / open_gop=0 / weightp=2 / keyint=240 / keyint_min=24 / scenecut=40 / intra_refresh=0 / rc=crf / mbtree=0 / crf=18.5 / qcomp=0.72 / qpmin=0 / qpmax=69 / qpstep=4 / ip_ratio=1.40 / pb_ratio=1.30 / aq=1:0.85

AudioID : 2Format : AACFormat/Info : Advanced Audio CodecFormat profile : LCCodec ID : 40Duration : 5mn 0sBit rate mode : VariableBit rate : 192 KbpsMaximum bit rate : 224 KbpsChannel count : 2 channelsChannel positions : Front: L RSampling rate : 48.0 KHzCompression mode : LossyStream size : 6.88 MiB (10%)Language : Japanese


Трекер:  [ 08-Июл-2016 08:00 ]

  

Скачать .torrent

Размер .torrent файла 11 KB


Размер: 262 MB
Хэш (hash) релиза: d100b29d3c1479089c80b75b1786ec29661750ea
Подписка на обновления:

Торренты, похожие на Детективное агентство «Хаматора» SD Мини-хама: Минимум Хаматора скачать торрент

Форум Название Автор Размер S L Добавлен
Аниме | HD Rips ·· Детективное агентство «Хаматора» SD / Мини-хама: Минимум Хаматора / Mini Hama: Minimum-Hamatora [TV] [1 из 9] [Без хардсаба] [JAP, SUB] [2015 г., комедия, HDTVRip] [720p] Galfimbul 6913291466 MB 0 0 1448056939

01:02

21-Ноя-15

Еще никто не оставлял запись к записи скачать торрент Детективное агентство «Хаматора» SD Мини-хама: Минимум Хаматора . Будь первым!

!Обратная связь